Tags
Language
Tags
July 2024
Su Mo Tu We Th Fr Sa
30 1 2 3 4 5 6
7 8 9 10 11 12 13
14 15 16 17 18 19 20
21 22 23 24 25 26 27
28 29 30 31 1 2 3

Louis Armstrong - The Complete Louis Armstrong Columbia And RCA Victor Studio Sessions 1946-1966 (2021)

Posted By: Rtax
Louis Armstrong - The Complete Louis Armstrong Columbia And RCA Victor Studio Sessions 1946-1966 (2021)

Louis Armstrong - The Complete Louis Armstrong Columbia And RCA Victor Studio Sessions 1946-1966 (2021)
XLD Rip | FLAC (tracks, cue, log) - 2.2 GB | MP3 CBR 320 kbps - 1.2 GB
9:05:15 | Jazz, Swing, Vocal, Ballad, Dixieland | Label: Columbia / RCA Victor / Mosaic / Sony Music

7 CDs will take listeners into the studio with Louis Armstrong in a way never previously imaginable
Over three hours of bonus material, including unissued takes, rehearsals and even studio discussions. Since George Avakian relied so much on editing and splicing, his albums contained very few complete, unedited takes.
Superior sound utilizing the original RCA Victor metal parts, and test pressings of the pre-tape material and for the Columbia sessions Mosaic Records had complete access to all the reel-to-reel tapes.

Nearly 50 years after his passing, Louis Armstrong’s achievements as a trumpeter, vocalist, actor, author, Civil Rights advocate, and humanitarian remain unparalleled.

He left behind a timeless body of work with hit records in every decade, including seminal albums such as Louis Armstrong Plays W. C. Handy, Satch Plays Fats and The Real Ambassadors. The opportunity to go behind the scenes to hear how Armstrong created these masterworks in the studio has never been possible-until now.

The story begins in 1946 with Louis Armstrong still toting a big band across the country on an endless series of one-nighters. After signing a new contract with RCA Victor, Armstrong immediately made his first recordings with Duke Ellington as part of an “Esquire All-American 1946 Award Winners” date overseen by Leonard Feather. RCA gave Armstrong the opportunity to record his regular working band, but also showcased the trumpeter in a small group setting thanks to the filming of New Orleans in the fall of 1946. With the writing on the wall, Armstrong recorded four sensational sides with small group featuring Bobby Hackett and Jack Teagarden in June 1947, eventually leading to the formation of his popular small group, the All Stars.

All 29 of Armstrong’s 1946-1947 RCA recordings are being presented here in superb fidelity, transferred from the original metal parts.

Louis Armstrong & George Avakian: A Perfect Match

Armstrong spent the next several years recording popular hits for Decca Records, elevating his popularity but hurting his reputation with some in the jazz world. George Avakian relished the opportunity to record his longtime friend in a more jazz-centric setting but couldn’t get through Decca’s ironclad contract. When he finally got the opportunity to make a one-off album in July 1954, Avakian made the most of it.

The result was Louis Armstrong Plays W. C. Handy, long regarded as the finest long-playing album of Armstrong’s entire career. Armstrong’s All Stars, featuring Trummy Young, Barney Bigard, Billy Kyle, Arvell Shaw, Barrett Deems, and Velma Middleton, were in top form on a series of compositions by the “Father of the Blues,” W. C. Handy. Avakian was known for his copious postproduction work, splicing the best portions of each take in order to present the optimal listening experience. The result was a critical and commercial smash. “They’re perfect-they’re my tops,” Armstrong said of the final album.

Armstrong’s manager Joe Glaser couldn’t argue with the results and allowed Avakian to record a follow up in 1955, this time featuring the compositions of Armstrong’s old friend, Fats Waller. The resulting album, Satch Plays Fats, was another masterpiece, featuring emotional readings of “Blue Turning Grey Over You” and “Black and Blue” and romps on Waller favorites such as “Ain’t Misbehavin'” and “Honeysuckle Rose.”

For his next idea, Avakian eschewed the works of Handy and Waller and instead turned to Kurt Weill in having Armstrong record “A Theme from a Threepenny Opera,” soon to become better known as the monster hit, “Mack the Knife.” Avakian’s remarkable run of Armstrong recordings ended the following year but the general consensus has always been that no other producer captured Armstrong better in his 1950s late period prime on Handy, Fats, and “Mack the Knife” (not to mention Ambassador Satch, already covered in now out-of-print 2014 Mosaic Records set).

Who’s’ The Real Ambassdor

In September 1957, Louis Armstrong put his entire career on the line to speak out against injustice in Little Rock, Arkansas, disgusted by Governor Oval Faubus sending in the Arkansas National Guard to prevent nine African American students from integrating Little Rock Central High School. “The way they’re treating my people in the south, the government can go to hell,” Armstrong told reporters, making headlines around the world. No one else in the jazz world spoke up at that time but two figures were deeply moved by Armstrong’s courageous stance: Dave and Iola Brubeck.

The Brubecks immediately began writing what they envisioned as a lavish Broadway musical based around the notion that the “Jazz Ambassadors” the State Department was sending around the world were more important than the political ambassadors, even though many of those same musicians were fighting for their rights in their homeland. The work was originally titled World, Take a Holiday in 1959 and was written to star Louis Armstrong, Carmen McRae and the vocal trio of Lambert, Hendricks and Ross. Unable to get their work off the ground on Broadway, Brubeck used his post-“Take Five” clout to have Columbia record selections from the score of their work, now titled The Real Ambassadors, in 1961.

Armstrong was 60 years old, still recovering from a heart attack, and had recently returned from a grueling State Department tour of Africa that found his mere presence enough to temporary halt a civil war in the Congo. With a lifetime of wisdom at his disposal and mortality now staring him in the eyes, Armstrong brought a gravitas to his work on The Real Ambassadors, whether summoning up deep nostalgia on the touching “Summer Song” or singing with tears in his eyes on “They Say I Look Like God.” The result was years ahead of its time, but both Brubeck and Armstrong remained especially proud of it until the end of their respective lives.

Mosaic Records Uncovers Hours of Bonus Material

While assembling this set, the producers were greeted by dozens of surprises on the original session tapes. Because Avakian relied so much on editing and splicing, his albums contained very few complete, unedited takes. This set will make up for that, with over three hours of bonus material, including unissued takes, rehearsals and even studio discussions, creating the most intimate portrait of Armstrong, the All Stars, and Avakian at work in the studios.

And as a tribute to Avakian, we are also including newly remastered transfers of the original albums in their original sequence, giving listeners the rare opportunity to hear the beloved master takes side-by-side with their unedited counterparts.

As with the 1950s material, Mosaic Records is thrilled to present over 75 minutes of material not found on the original album, including previously unissued alternate takes of each one of Armstrong’s features, including multiple takes of both “Summer Song” and “They Say I Look Like God,” two of the highpoints of not just the album, but Armstrong’s entire career.

More Than Just Music

Mosaic Records has long been known for its extraordinary packaging, but this set has gone above and beyond in telling the stories behind the making of the music, including an extremely in-depth 30,000 word essay from Armstrong biographer Ricky Riccardi and over 40 photos from the collections of the Louis Armstrong Educational Foundation, the great majority of which have never been published.

Whether you’ve listened to this music for 60 years or it is your first time, Columbia and RCA Victor Studio Recordings of Louis Armstrong 1946-1966 is an essential purchase for anyone interested in Satchmo the Great. Like all Mosaic releases, this will be a limited edition set and is guaranteed to be one of our most popular releases so act fast and don’t miss out on this definitive document of why Pops will always remain tops.

“Mosaic is the king of the boxed set, releasing beautifully packaged reissues with some of the most exhaustive liner notes in the industry”
– David Germain, Associated Press

Tracklist
Disc 1
1. Esquire All-American 1946 Award Winners – Long Long Journey (04:33)
2. Esquire All-American 1946 Award Winners – Snafu (04:16)
3. Louis Armstrong And His Orchestra – Linger In My Arms A Little Longer (02:57)
4. Louis Armstrong And His Orchestra – Whatta Ya Gonna Do? (02:53)
5. Louis Armstrong And His Orchestra – No Variety Blues (02:54)
6. Louis Armstrong And His Orchestra – Joseph ’N His Brudders (03:03)
7. Louis Armstrong And His Orchestra – Back O' Town Blues (03:15)
8. Louis Armstrong & His Hot Seven – I Want A Little Girl (03:01)
9. Louis Armstrong & His Hot Seven – Sugar (03:25)
10. Louis Armstrong & His Hot Seven – Blues For Yesterday (02:36)
11. Louis Armstrong & His Hot Seven – Blues In The South (03:03)
12. Louis Armstrong And His Orchestra – Endie (02:53)
13. Louis Armstrong And His Orchestra – The Blues Are Brewin' (02:55)
14. Louis Armstrong And His Dixieland Seven – Do You Know What It Means To Miss New Orleans (03:00)
15. Louis Armstrong And His Dixieland Seven – Where The Blues Were Born In New Orleans (03:06)
16. Louis Armstrong And His Dixieland Seven – Mahogany Hall Stomp (02:57)
17. Louis Armstrong And His Orchestra – I Wonder, I Wonder, I Wonder (02:33)
18. Louis Armstrong And His Orchestra – I Believe (03:00)
19. Louis Armstrong And His Orchestra – Why Doubt My Love (03:24)
20. Louis Armstrong And His Orchestra – It Takes Time (02:40)
21. Louis Armstrong And His Orchestra – You Don't Learn That In School (02:41)
22. Louis Armstrong And His All-Stars – Jack-Armstrong Blues (03:01)
23. Louis Armstrong And His All-Stars – Rockin' Chair (03:06)
24. Louis Armstrong And His All-Stars – Some Day (You'll Be Sorry) (03:13)
25. Louis Armstrong And His All-Stars – Fifty-Fifty Blues (02:59)

Disc 2
1. Louis Armstrong And His All-Stars – A Song Was Born (03:20)
2. Louis Armstrong And His All-Stars – Please Stop Playing Those Blues, Boys (03:20)
3. Louis Armstrong And His All-Stars – Before Long (02:55)
4. Louis Armstrong And His All-Stars – Lovely Weather We're Having (03:19)
5. Louis Armstrong And His All-Stars – 'Taint What You Do (02:47)
6. Louis Armstrong And His All-Stars – Back O' Town Blues (03:51)
7. Louis Armstrong And His All-Stars – Mack The Knife (03:25)
8. Louis Armstrong And His All-Stars & Lotte Lenya – Mack The Knife (03:13)
9. Louis Armstrong – Rain, Rain (02:40)
10. Louis Armstrong – I Never Saw A Better Day (03:13)
11. Bing Crosby, Louis Armstrong, Rosemary Clooney & The Hi-Lo's – Music To Shave By (02:45)
12. Louis Armstrong – Cabaret (03:10)
13. Louis Armstrong – Canal Street Blues (03:01)
14. Louis Armstrong And His All-Stars – ’Taint What You Do (-5 And Discussion From Rehearsal Take) (03:33)
15. Louis Armstrong And His All-Stars – Back O’ Town Blues (Rehearsal) (05:50)
16. Louis Armstrong And His All-Stars – Mack The Knife (Rehearsal #1) (04:21)
17. Louis Armstrong And His All-Stars – Mack The Knife (-1) (03:51)
18. Louis Armstrong And His All-Stars – Mack The Knife (Rehearsal #2 And Voice Tracks) (02:43)
19. Louis Armstrong And His All-Stars – Mack The Knife (-3 And Inserts #1) (04:19)
20. Louis Armstrong And His All-Stars – Mack The Knife (-7) (03:35)
21. Louis Armstrong And His All-Stars & Lotte Lenya – Mack The Knife (BDs And Inserts) (08:35)
22. Louis Armstrong And His All-Stars – Mack The Knife (Moritat) (Instrumental) (02:11)

Disc 3
1. Louis Armstrong And His All-Stars – St. Louis Blues (08:53)
2. Louis Armstrong And His All-Stars – Yellow Dog Blues (04:16)
3. Louis Armstrong And His All-Stars – Loveless Love (04:28)
4. Louis Armstrong And His All-Stars – Aunt Hagar's Blues (04:59)
5. Louis Armstrong And His All-Stars – Long Gone (05:11)
6. Louis Armstrong And His All-Stars – The Memphis Blues (03:00)
7. Louis Armstrong And His All-Stars – Beale Street Blues (04:57)
8. Louis Armstrong And His All-Stars – Ole Miss Blues (03:27)
9. Louis Armstrong And His All-Stars – Chantez-Les Bas (04:48)
10. Louis Armstrong And His All-Stars – Hesitating Blues (05:21)
11. Louis Armstrong And His All-Stars – Atlanta Blues (04:34)
12. Louis Armstrong And His All-Stars – St. Louis Blues (-3) And Armstrong / Avakian Discussion (12:11)
13. Louis Armstrong And His All-Stars – St. Louis Blues (-4) (08:57)
14. Louis Armstrong And His All-Stars – Yellow Dog Blues (-1) (04:32)

Disc 4
1. Louis Armstrong And His All-Stars – Loveless Love (Rehearsal Take) (06:10)
2. Louis Armstrong And His All-Stars – Loveless Love (-8) (04:38)
3. Louis Armstrong And His All-Stars – Loveless Love (Insert Take) (03:28)
4. Louis Armstrong And His All-Stars – Aunt Hagar's Blues (-1 Through -4) (05:13)
5. Louis Armstrong And His All-Stars – Aunt Hagar's Blues (-9) (05:12)
6. Louis Armstrong And His All-Stars – Alligator Story (00:48)
7. Louis Armstrong And His All-Stars – Long Gone (Rehearsal #1) (05:15)
8. Louis Armstrong And His All-Stars – Long Gone (-1 And Rehearsal #2) (05:17)
9. Louis Armstrong And His All-Stars – Long Gone (-5) (07:53)
10. Louis Armstrong And His All-Stars – The Memphis Blues (-2) (03:09)
11. Louis Armstrong And His All-Stars – Beale Street Blues (-1) (04:35)
12. Louis Armstrong And His All-Stars – Ole Miss Blues (-1) (04:47)
13. Louis Armstrong And His All-Stars – Ole Miss Blues (-3) (04:43)
14. Louis Armstrong And His All-Stars – Chantez-Les Bas (-2) (03:53)
15. Louis Armstrong And His All-Stars – Hesitating Blues (Rehearsal Take) (05:38)
16. Louis Armstrong And His All-Stars – Atlanta Blues (-2) (04:55)
17. Louis Armstrong And His All-Stars – Atlanta Blues (-3) (04:39)

Disc 5
1. Louis Armstrong And His All-Stars – Honeysuckle Rose (02:53)
2. Louis Armstrong And His All-Stars – Blue Turning Grey Over You (04:57)
3. Louis Armstrong And His All-Stars – I'm Crazy 'Bout My Baby (04:26)
4. Louis Armstrong And His All-Stars – Squeeze Me (05:04)
5. Louis Armstrong And His All-Stars – Keepin' Out Of Mischief Now (03:20)
6. Louis Armstrong And His All-Stars – All That Meat And No Potatoes (05:17)
7. Louis Armstrong And His All-Stars – I've Got A Feeling I'm Falling (03:10)
8. Louis Armstrong And His All-Stars – Black And Blue (04:42)
9. Louis Armstrong And His All-Stars – Ain't Misbehavin' (03:58)
10. Louis Armstrong And His All-Stars – Honeysuckle Rose (-1) (05:00)
11. Louis Armstrong And His All-Stars – Honeysuckle Rose (-5) (03:12)
12. Louis Armstrong And His All-Stars – Blue Turning Grey Over You (-2) (04:50)
13. Louis Armstrong And His All-Stars – Blue Turning Grey Over You (-3 And Inserts) (06:47)
14. Louis Armstrong And His All-Stars – Blue Turning Grey Over You (-5) (05:28)
15. Louis Armstrong And His All-Stars – I'm Crazy 'Bout My Baby (-3) (04:53)
16. Louis Armstrong And His All-Stars – I'm Crazy 'Bout My Baby (-5) (04:55)
17. Louis Armstrong And His All-Stars – Squeeze Me (-1) (06:21)

Disc 6
1. Louis Armstrong And His All-Stars – Keepin' Out Of Mischief Now (-4) (03:37)
2. Louis Armstrong And His All-Stars – Keepin' Out Of Mischief Now (-9) (03:28)
3. Louis Armstrong And His All-Stars – All That Meat And No Potatoes (-1) (05:06)
4. Louis Armstrong And His All-Stars – I've Got A Feeling I'm Falling (-2) (03:27)
5. Louis Armstrong And His All-Stars – I've Got A Feeling I'm Falling (-5) (03:21)
6. Louis Armstrong And His All-Stars – Black And Blue (Rehearsal) (03:24)
7. Louis Armstrong And His All-Stars – Ain't Misbehavin' (-1) (04:46)
8. Louis Armstrong And His Band, Dave Brubeck, Lambert, Hendricks And Ross & Carmen McRae – Everybody's Comin' (01:50)
9. Louis Armstrong And His Band, Dave Brubeck, Lambert, Hendricks And Ross & Carmen McRae – Cultural Exchange (04:42)
10. Louis Armstrong And His Band, Dave Brubeck, Lambert, Hendricks And Ross & Carmen McRae – Good Reviews (02:09)
11. Louis Armstrong And His Band, Dave Brubeck, Lambert, Hendricks And Ross & Carmen McRae – Remember Who You Are (02:33)
12. Louis Armstrong And His Band, Dave Brubeck, Lambert, Hendricks And Ross & Carmen McRae – My One Bad Habit (02:41)
13. Louis Armstrong And His Band, Dave Brubeck, Lambert, Hendricks And Ross & Carmen McRae – Summer Song (03:18)
14. Louis Armstrong And His Band, Dave Brubeck, Lambert, Hendricks And Ross & Carmen McRae – King For A Day (03:41)
15. Louis Armstrong And His Band, Dave Brubeck, Lambert, Hendricks And Ross & Carmen McRae – Blow Satchmo (00:48)
16. Louis Armstrong And His Band, Dave Brubeck, Lambert, Hendricks And Ross & Carmen McRae – The Real Ambassador (03:12)
17. Louis Armstrong And His Band, Dave Brubeck, Lambert, Hendricks And Ross & Carmen McRae – In The Lurch (02:32)
18. Louis Armstrong And His Band, Dave Brubeck, Lambert, Hendricks And Ross & Carmen McRae – One Moment Worth Years (04:22)
19. Louis Armstrong And His Band, Dave Brubeck, Lambert, Hendricks And Ross & Carmen McRae – They Say I Look Like God (05:30)
20. Louis Armstrong And His Band, Dave Brubeck, Lambert, Hendricks And Ross & Carmen McRae – Since Love Had Its Way (02:35)
21. Louis Armstrong And His Band, Dave Brubeck, Lambert, Hendricks And Ross & Carmen McRae – I Didn't Know Until You Told Me (03:02)
22. Louis Armstrong And His Band, Dave Brubeck, Lambert, Hendricks And Ross & Carmen McRae – Swing Bells / Blow Satchmo / Finale (06:03)

Disc 7
1. Louis Armstrong And His Band, Dave Brubeck, Lambert, Hendricks And Ross & Carmen McRae – Nomad (02:56)
2. Louis Armstrong And His Band, Dave Brubeck, Lambert, Hendricks And Ross & Carmen McRae – You Swing Baby (The Duke) (02:36)
3. Louis Armstrong And His Band, Dave Brubeck, Lambert, Hendricks And Ross & Carmen McRae – Lonesome (02:30)
4. Louis Armstrong And His Band, Dave Brubeck, Lambert, Hendricks And Ross & Carmen McRae – Nomad (-10) (03:26)
5. Louis Armstrong And His Band, Dave Brubeck, Lambert, Hendricks And Ross & Carmen McRae – Lonesome (1st Version) (-2) (03:08)
6. Louis Armstrong And His Band, Dave Brubeck, Lambert, Hendricks And Ross & Carmen McRae – Lonesome (2nd Version) (-3 And Reading) (04:17)
7. Louis Armstrong And His Band, Dave Brubeck, Lambert, Hendricks And Ross & Carmen McRae – Everybody's Comin' (-2) (01:59)
8. Louis Armstrong And His Band, Dave Brubeck, Lambert, Hendricks And Ross & Carmen McRae – Cultural Exchange (-2) (05:29)
9. Louis Armstrong And His Band, Dave Brubeck, Lambert, Hendricks And Ross & Carmen McRae – Good Reviews (-7 / Tags #1 & #2) (02:40)
10. Louis Armstrong And His Band, Dave Brubeck, Lambert, Hendricks And Ross & Carmen McRae – Good Reviews (Insert -2) (01:48)
11. Louis Armstrong And His Band, Dave Brubeck, Lambert, Hendricks And Ross & Carmen McRae – Remember Who You Are (-6) (02:54)
12. Louis Armstrong And His Band, Dave Brubeck, Lambert, Hendricks And Ross & Carmen McRae – Summer Song (-2 And Inserts) (03:37)
13. Louis Armstrong And His Band, Dave Brubeck, Lambert, Hendricks And Ross & Carmen McRae – King For A Day (-4) (04:09)
14. Louis Armstrong And His Band, Dave Brubeck, Lambert, Hendricks And Ross & Carmen McRae – Blow Satchmo (-1) (01:28)
15. Louis Armstrong And His Band, Dave Brubeck, Lambert, Hendricks And Ross & Carmen McRae – The Real Ambassador (-4) (BD) (01:08)
16. Louis Armstrong And His Band, Dave Brubeck, Lambert, Hendricks And Ross & Carmen McRae – The Real Ambassador (-5) (03:53)
17. Louis Armstrong And His Band, Dave Brubeck, Lambert, Hendricks And Ross & Carmen McRae – One Moment Worth Years (-1) (04:29)
18. Louis Armstrong And His Band, Dave Brubeck, Lambert, Hendricks And Ross & Carmen McRae – They Say I Look Like God (-1) (04:54)
19. Louis Armstrong And His Band, Dave Brubeck, Lambert, Hendricks And Ross & Carmen McRae – They Say I Look Like God (-3) (05:14)
20. Louis Armstrong And His Band, Dave Brubeck, Lambert, Hendricks And Ross & Carmen McRae – Since Love Had Its Way (-2) (02:51)
21. Louis Armstrong And His Band, Dave Brubeck, Lambert, Hendricks And Ross & Carmen McRae – I Didn't Know Until You Told Me (-5) (03:04)
22. Louis Armstrong And His Band, Dave Brubeck, Lambert, Hendricks And Ross & Carmen McRae – Swing Bells (Remake Insert #1-4) (00:45)
23. Louis Armstrong And His Band, Dave Brubeck, Lambert, Hendricks And Ross & Carmen McRae – Blow Satchmo (Remake -1) (01:11)
24. Louis Armstrong And His Band, Dave Brubeck, Lambert, Hendricks And Ross & Carmen McRae – Finale (-1) (00:33)
X Lossless Decoder version 20220917 (155.1)

XLD extraction logfile from 2023-01-26 20:13:32 -0600

Louis Armstrong / The Complete Louis Armstrong (Discs 1 & 2)

Used drive : PIONEER BD-RW BDR-XD05 (revision 3.01)
Media type : Pressed CD

Ripper mode : XLD Secure Ripper
Disable audio cache : OK for the drive with a cache less than 1375KiB
Make use of C2 pointers : NO
Read offset correction : 667
Max retry count : 100
Gap status : Analyzed, Appended (except HTOA)

TOC of the extracted CD
Track | Start | Length | Start sector | End sector
––––––––––––––––––––––––––––-
1 | 00:00:00 | 04:33:08 | 0 | 20482
2 | 04:33:08 | 04:14:30 | 20483 | 39562
3 | 08:47:38 | 02:59:35 | 39563 | 53022
4 | 11:46:73 | 02:56:19 | 53023 | 66241
5 | 14:43:17 | 02:56:50 | 66242 | 79491
6 | 17:39:67 | 03:05:52 | 79492 | 93418
7 | 20:45:44 | 03:17:55 | 93419 | 108248
8 | 24:03:24 | 03:02:05 | 108249 | 121903
9 | 27:05:29 | 03:26:31 | 121904 | 137384
10 | 30:31:60 | 02:37:11 | 137385 | 149170
11 | 33:08:71 | 03:04:17 | 149171 | 162987
12 | 36:13:13 | 02:52:28 | 162988 | 175915
13 | 39:05:41 | 02:57:67 | 175916 | 189257
14 | 42:03:33 | 03:01:59 | 189258 | 202891
15 | 45:05:17 | 03:07:30 | 202892 | 216946
16 | 48:12:47 | 02:55:63 | 216947 | 230134
17 | 51:08:35 | 02:35:42 | 230135 | 241801
18 | 53:44:02 | 03:02:56 | 241802 | 255507
19 | 56:46:58 | 03:23:40 | 255508 | 270772
20 | 60:10:23 | 02:39:43 | 270773 | 282740
21 | 62:49:66 | 02:44:08 | 282741 | 295048
22 | 65:33:74 | 03:01:36 | 295049 | 308659
23 | 68:35:35 | 03:06:25 | 308660 | 322634
24 | 71:41:60 | 03:13:42 | 322635 | 337151
25 | 74:55:27 | 02:58:42 | 337152 | 350543

AccurateRip Summary (DiscID: 0047e5fb-04fb2360-76124119)
Track 01 : OK (v2, confidence 12/12)
Track 02 : OK (v2, confidence 11/11)
Track 03 : OK (v2, confidence 11/11)
Track 04 : OK (v2, confidence 12/12)
Track 05 : OK (v2, confidence 12/12)
Track 06 : OK (v2, confidence 12/12)
Track 07 : OK (v2, confidence 12/12)
Track 08 : OK (v2, confidence 11/11)
Track 09 : OK (v2, confidence 11/11)
Track 10 : OK (v2, confidence 12/12)
Track 11 : OK (v2, confidence 12/12)
Track 12 : OK (v2, confidence 11/11)
Track 13 : OK (v2, confidence 12/12)
Track 14 : OK (v2, confidence 12/12)
Track 15 : OK (v2, confidence 12/12)
Track 16 : OK (v2, confidence 12/12)
Track 17 : OK (v2, confidence 12/12)
Track 18 : OK (v2, confidence 12/12)
Track 19 : OK (v2, confidence 11/11)
Track 20 : OK (v2, confidence 12/12)
Track 21 : OK (v2, confidence 12/12)
Track 22 : OK (v2, confidence 12/12)
Track 23 : OK (v2, confidence 12/12)
Track 24 : OK (v2, confidence 11/11)
Track 25 : OK (v2, confidence 12/12)
->All tracks accurately ripped.

All Tracks
Album gain : -3.82 dB
Peak : 0.995239
Statistics
Read error : 0
Jitter error (maybe fixed) : 0
Retry sector count : 0
Damaged sector count : 0

Track 01
Filename : /Volumes/Music/01 Long Long Journey.flac
Pre-gap length : 00:02:00

Track gain : -2.32 dB
Peak : 0.843170
CRC32 hash (test run) : 2A41097A
CRC32 hash : 2A41097A
CRC32 hash (skip zero) : 27BCA4D7
AccurateRip v1 signature : 551E15A7
AccurateRip v2 signature : C075C38D
->Accurately ripped (v2, confidence 12/12)
Statistics
Read error : 0
Jitter error (maybe fixed) : 0
Retry sector count : 0
Damaged sector count : 0

Track 02
Filename : /Volumes/Music/02 Snafu.flac
Pre-gap length : 00:02:00

Track gain : -1.96 dB
Peak : 0.882202
CRC32 hash (test run) : EA331470
CRC32 hash : EA331470
CRC32 hash (skip zero) : C3C03967
AccurateRip v1 signature : 7DCB4C93
AccurateRip v2 signature : 47FE9CE9
->Accurately ripped (v2, confidence 11/11)
Statistics
Read error : 0
Jitter error (maybe fixed) : 0
Retry sector count : 0
Damaged sector count : 0

Track 03
Filename : /Volumes/Music/03 Linger In My Arms a Little Longer.flac
Pre-gap length : 00:02:00

Track gain : -5.11 dB
Peak : 0.845184
CRC32 hash (test run) : 634DC544
CRC32 hash : 634DC544
CRC32 hash (skip zero) : D8A66C19
AccurateRip v1 signature : 1E66E408
AccurateRip v2 signature : BF6C0E6F
->Accurately ripped (v2, confidence 11/11)
Statistics
Read error : 0
Jitter error (maybe fixed) : 0
Retry sector count : 0
Damaged sector count : 0

Track 04
Filename : /Volumes/Music/04 Whatta Ya Gonna Do?.flac
Pre-gap length : 00:02:00

Track gain : -1.86 dB
Peak : 0.935852
CRC32 hash (test run) : 5D0B72CC
CRC32 hash : 5D0B72CC
CRC32 hash (skip zero) : 6CC9DDC2
AccurateRip v1 signature : 74DD0B7F
AccurateRip v2 signature : 2BEFC72D
->Accurately ripped (v2, confidence 12/12)
Statistics
Read error : 0
Jitter error (maybe fixed) : 0
Retry sector count : 0
Damaged sector count : 0

Track 05
Filename : /Volumes/Music/05 No Variety Blues.flac
Pre-gap length : 00:02:00

Track gain : -3.05 dB
Peak : 0.883240
CRC32 hash (test run) : A0EB8990
CRC32 hash : A0EB8990
CRC32 hash (skip zero) : A5ED9263
AccurateRip v1 signature : A0CFADE0
AccurateRip v2 signature : 926AC0AB
->Accurately ripped (v2, confidence 12/12)
Statistics
Read error : 0
Jitter error (maybe fixed) : 0
Retry sector count : 0
Damaged sector count : 0

Track 06
Filename : /Volumes/Music/06 Joseph and His Brudders.flac
Pre-gap length : 00:02:00

Track gain : -4.06 dB
Peak : 0.906616
CRC32 hash (test run) : 098C5C9B
CRC32 hash : 098C5C9B
CRC32 hash (skip zero) : 190DB4E0
AccurateRip v1 signature : 6A755637
AccurateRip v2 signature : 0CE25F51
->Accurately ripped (v2, confidence 12/12)
Statistics
Read error : 0
Jitter error (maybe fixed) : 0
Retry sector count : 0
Damaged sector count : 0

Track 07
Filename : /Volumes/Music/07 Back O' Town Blues.flac
Pre-gap length : 00:02:00

Track gain : -4.10 dB
Peak : 0.940277
CRC32 hash (test run) : 0FE22E5E
CRC32 hash : 0FE22E5E
CRC32 hash (skip zero) : 49CF63F4
AccurateRip v1 signature : 4421DB21
AccurateRip v2 signature : B7E421BB
->Accurately ripped (v2, confidence 12/12)
Statistics
Read error : 0
Jitter error (maybe fixed) : 0
Retry sector count : 0
Damaged sector count : 0

Track 08
Filename : /Volumes/Music/08 I Want a Little Girl.flac
Pre-gap length : 00:02:00

Track gain : -3.55 dB
Peak : 0.758453
CRC32 hash (test run) : 32C241A8
CRC32 hash : 32C241A8
CRC32 hash (skip zero) : A26DA6CE
AccurateRip v1 signature : 5071CB80
AccurateRip v2 signature : 920AE9ED
->Accurately ripped (v2, confidence 11/11)
Statistics
Read error : 0
Jitter error (maybe fixed) : 0
Retry sector count : 0
Damaged sector count : 0

Track 09
Filename : /Volumes/Music/09 Sugar.flac
Pre-gap length : 00:02:00

Track gain : -3.22 dB
Peak : 0.848846
CRC32 hash (test run) : 32665917
CRC32 hash : 32665917
CRC32 hash (skip zero) : 598B4779
AccurateRip v1 signature : 5A5E0CA1
AccurateRip v2 signature : D42289D9
->Accurately ripped (v2, confidence 11/11)
Statistics
Read error : 0
Jitter error (maybe fixed) : 0
Retry sector count : 0
Damaged sector count : 0

Track 10
Filename : /Volumes/Music/10 Blues for Yesterday.flac
Pre-gap length : 00:02:00

Track gain : -3.05 dB
Peak : 0.692627
CRC32 hash (test run) : 36AEFB5F
CRC32 hash : 36AEFB5F
CRC32 hash (skip zero) : 4F5FB77C
AccurateRip v1 signature : AFE802C7
AccurateRip v2 signature : 722DB338
->Accurately ripped (v2, confidence 12/12)
Statistics
Read error : 0
Jitter error (maybe fixed) : 0
Retry sector count : 0
Damaged sector count : 0

Track 11
Filename : /Volumes/Music/11 Blues In the South.flac
Pre-gap length : 00:02:00

Track gain : -3.83 dB
Peak : 0.861938
CRC32 hash (test run) : 272DF447
CRC32 hash : 272DF447
CRC32 hash (skip zero) : DA327D31
AccurateRip v1 signature : 7772C821
AccurateRip v2 signature : 9C941C28
->Accurately ripped (v2, confidence 12/12)
Statistics
Read error : 0
Jitter error (maybe fixed) : 0
Retry sector count : 0
Damaged sector count : 0

Track 12
Filename : /Volumes/Music/12 Endie.flac
Pre-gap length : 00:02:00

Track gain : -5.36 dB
Peak : 0.949921
CRC32 hash (test run) : 72D37E39
CRC32 hash : 72D37E39
CRC32 hash (skip zero) : 3655FFA9
AccurateRip v1 signature : 3697E955
AccurateRip v2 signature : 686CEC4A
->Accurately ripped (v2, confidence 11/11)
Statistics
Read error : 0
Jitter error (maybe fixed) : 0
Retry sector count : 0
Damaged sector count : 0

Track 13
Filename : /Volumes/Music/13 The Blues Are Brewin'.flac
Pre-gap length : 00:02:00

Track gain : -3.64 dB
Peak : 0.869720
CRC32 hash (test run) : 63232B49
CRC32 hash : 63232B49
CRC32 hash (skip zero) : 6E1A8AEB
AccurateRip v1 signature : 87E040E7
AccurateRip v2 signature : 8A82D201
->Accurately ripped (v2, confidence 12/12)
Statistics
Read error : 0
Jitter error (maybe fixed) : 0
Retry sector count : 0
Damaged sector count : 0

Track 14
Filename : /Volumes/Music/14 Do You Know What It Means To Miss New Orleans.flac
Pre-gap length : 00:02:00

Track gain : -4.27 dB
Peak : 0.983398
CRC32 hash (test run) : E9CE95A4
CRC32 hash : E9CE95A4
CRC32 hash (skip zero) : FDA939B8
AccurateRip v1 signature : 6588697F
AccurateRip v2 signature : 3C1CAE55
->Accurately ripped (v2, confidence 12/12)
Statistics
Read error : 0
Jitter error (maybe fixed) : 0
Retry sector count : 0
Damaged sector count : 0

Track 15
Filename : /Volumes/Music/15 Where The Blues Were Born In New Orleans.flac
Pre-gap length : 00:02:00

Track gain : -4.70 dB
Peak : 0.991760
CRC32 hash (test run) : 21A72439
CRC32 hash : 21A72439
CRC32 hash (skip zero) : 0172168E
AccurateRip v1 signature : E35A5BDF
AccurateRip v2 signature : 81DBDDAD
->Accurately ripped (v2, confidence 12/12)
Statistics
Read error : 0
Jitter error (maybe fixed) : 0
Retry sector count : 0
Damaged sector count : 0

Track 16
Filename : /Volumes/Music/16 Mahogany Hall Stomp.flac
Pre-gap length : 00:02:00

Track gain : -3.96 dB
Peak : 0.966461
CRC32 hash (test run) : D1C47376
CRC32 hash : D1C47376
CRC32 hash (skip zero) : C08B9222
AccurateRip v1 signature : 61F71291
AccurateRip v2 signature : 49B53AB9
->Accurately ripped (v2, confidence 12/12)
Statistics
Read error : 0
Jitter error (maybe fixed) : 0
Retry sector count : 0
Damaged sector count : 0

Track 17
Filename : /Volumes/Music/17 I Wonder, I Wonder, I Wonder.flac
Pre-gap length : 00:02:00

Track gain : -3.17 dB
Peak : 0.898376
CRC32 hash (test run) : 348C8CD2
CRC32 hash : 348C8CD2
CRC32 hash (skip zero) : BC0B223E
AccurateRip v1 signature : 1AFAAE00
AccurateRip v2 signature : FF343330
->Accurately ripped (v2, confidence 12/12)
Statistics
Read error : 0
Jitter error (maybe fixed) : 0
Retry sector count : 0
Damaged sector count : 0

Track 18
Filename : /Volumes/Music/18 I Believe.flac
Pre-gap length : 00:02:00

Track gain : -4.36 dB
Peak : 0.915680
CRC32 hash (test run) : 412FE014
CRC32 hash : 412FE014
CRC32 hash (skip zero) : EE36DD44
AccurateRip v1 signature : 8DDBDA51
AccurateRip v2 signature : F67A5C23
->Accurately ripped (v2, confidence 12/12)
Statistics
Read error : 0
Jitter error (maybe fixed) : 0
Retry sector count : 0
Damaged sector count : 0

Track 19
Filename : /Volumes/Music/19 Why Doubt My Love.flac
Pre-gap length : 00:02:00

Track gain : -4.07 dB
Peak : 0.885010
CRC32 hash (test run) : A43009EC
CRC32 hash : A43009EC
CRC32 hash (skip zero) : F73BADA6
AccurateRip v1 signature : B617E548
AccurateRip v2 signature : 5374ED71
->Accurately ripped (v2, confidence 11/11)
Statistics
Read error : 0
Jitter error (maybe fixed) : 0
Retry sector count : 0
Damaged sector count : 0

Track 20
Filename : /Volumes/Music/20 It Takes Time.flac
Pre-gap length : 00:02:00

Track gain : -5.18 dB
Peak : 0.942841
CRC32 hash (test run) : E2D2CD7B
CRC32 hash : E2D2CD7B
CRC32 hash (skip zero) : F0ADA9C2
AccurateRip v1 signature : 4740C748
AccurateRip v2 signature : 122B4073
->Accurately ripped (v2, confidence 12/12)
Statistics
Read error : 0
Jitter error (maybe fixed) : 0
Retry sector count : 0
Damaged sector count : 0

Track 21
Filename : /Volumes/Music/21 You Don't Learn That In School.flac
Pre-gap length : 00:02:00

Track gain : -4.86 dB
Peak : 0.869080
CRC32 hash (test run) : 23BB0318
CRC32 hash : 23BB0318
CRC32 hash (skip zero) : 4D34F256
AccurateRip v1 signature : E8935FB6
AccurateRip v2 signature : E1C5E1CF
->Accurately ripped (v2, confidence 12/12)
Statistics
Read error : 0
Jitter error (maybe fixed) : 0
Retry sector count : 0
Damaged sector count : 0

Track 22
Filename : /Volumes/Music/22 Jack-Armstrong Blues.flac
Pre-gap length : 00:02:00

Track gain : -4.97 dB
Peak : 0.995239
CRC32 hash (test run) : 95EE7F0F
CRC32 hash : 95EE7F0F
CRC32 hash (skip zero) : 16FD206A
AccurateRip v1 signature : E10BBB4A
AccurateRip v2 signature : 1FD6190D
->Accurately ripped (v2, confidence 12/12)
Statistics
Read error : 0
Jitter error (maybe fixed) : 0
Retry sector count : 0
Damaged sector count : 0

Track 23
Filename : /Volumes/Music/23 Rockin' Chair.flac
Pre-gap length : 00:02:00

Track gain : -3.34 dB
Peak : 0.994629
CRC32 hash (test run) : 227A1193
CRC32 hash : 227A1193
CRC32 hash (skip zero) : 377D2662
AccurateRip v1 signature : 86966446
AccurateRip v2 signature : 25DC0716
->Accurately ripped (v2, confidence 12/12)
Statistics
Read error : 0
Jitter error (maybe fixed) : 0
Retry sector count : 0
Damaged sector count : 0

Track 24
Filename : /Volumes/Music/24 Some Day (You'll Be Sorry).flac
Pre-gap length : 00:02:00

Track gain : -1.42 dB
Peak : 0.934875
CRC32 hash (test run) : 52CEEAC6
CRC32 hash : 52CEEAC6
CRC32 hash (skip zero) : 18A662D0
AccurateRip v1 signature : 0AF182A2
AccurateRip v2 signature : 24D239FA
->Accurately ripped (v2, confidence 11/11)
Statistics
Read error : 0
Jitter error (maybe fixed) : 0
Retry sector count : 0
Damaged sector count : 0

Track 25
Filename : /Volumes/Music/25 Fifty Fifty Blues.flac
Pre-gap length : 00:02:00

Track gain : -2.63 dB
Peak : 0.961395
CRC32 hash (test run) : 29D979EB
CRC32 hash : 29D979EB
CRC32 hash (skip zero) : F0B2C582
AccurateRip v1 signature : 80ED870F
AccurateRip v2 signature : 684A678E
->Accurately ripped (v2, confidence 12/12)
Statistics
Read error : 0
Jitter error (maybe fixed) : 0
Retry sector count : 0
Damaged sector count : 0

No errors occurred

End of status report

––-BEGIN XLD SIGNATURE––-
BJzoS_QnLKInpbmEqp2jFZGrVLS0KG4FNzzC_mJ1HMnHwsw426yCbzK0PPn2wey98l1bk1deAPL6.PX.R5TC.PpIEQyoObKU1Ticlsi
––-END XLD SIGNATURE––-


X Lossless Decoder version 20220917 (155.1)

XLD extraction logfile from 2023-01-29 00:11:44 -0600

Louis Armstrong / The Complete Louis Armstrong D2

Used drive : PIONEER BD-RW BDR-XD05 (revision 3.01)
Media type : Pressed CD

Ripper mode : XLD Secure Ripper
Disable audio cache : OK for the drive with a cache less than 1375KiB
Make use of C2 pointers : NO
Read offset correction : 667
Max retry count : 100
Gap status : Analyzed, Appended (except HTOA)

TOC of the extracted CD
Track | Start | Length | Start sector | End sector
––––––––––––––––––––––––––––-
1 | 00:00:00 | 03:20:65 | 0 | 15064
2 | 03:20:65 | 03:19:17 | 15065 | 30006
3 | 06:40:07 | 02:55:48 | 30007 | 43179
4 | 09:35:55 | 03:18:21 | 43180 | 58050
5 | 12:54:01 | 02:49:14 | 58051 | 70739
6 | 15:43:15 | 03:50:63 | 70740 | 88052
7 | 19:34:03 | 03:26:08 | 88053 | 103510
8 | 23:00:11 | 03:13:33 | 103511 | 118018
9 | 26:13:44 | 02:39:25 | 118019 | 129968
10 | 28:52:69 | 03:13:41 | 129969 | 144484
11 | 32:06:35 | 02:44:20 | 144485 | 156804
12 | 34:50:55 | 03:10:45 | 156805 | 171099
13 | 38:01:25 | 03:02:52 | 171100 | 184801
14 | 41:04:02 | 03:36:48 | 184802 | 201049
15 | 44:40:50 | 05:50:05 | 201050 | 227304
16 | 50:30:55 | 04:22:17 | 227305 | 246971
17 | 54:52:72 | 03:49:69 | 246972 | 264215
18 | 58:42:66 | 02:43:54 | 264216 | 276494
19 | 61:26:45 | 04:19:46 | 276495 | 295965
20 | 65:46:16 | 03:34:63 | 295966 | 312078
21 | 69:21:04 | 08:36:56 | 312079 | 350834
22 | 77:57:60 | 01:56:12 | 350835 | 359546

AccurateRip Summary (DiscID: 003ab83c-03b86b7b-5912b916)
Track 01 : OK (v2, confidence 11/11)
Track 02 : OK (v2, confidence 12/12)
Track 03 : OK (v2, confidence 11/11)
Track 04 : OK (v2, confidence 11/11)
Track 05 : OK (v2, confidence 12/12)
Track 06 : OK (v2, confidence 12/12)
Track 07 : OK (v2, confidence 12/12)
Track 08 : OK (v2, confidence 12/12)
Track 09 : OK (v2, confidence 12/12)
Track 10 : OK (v2, confidence 12/12)
Track 11 : OK (v2, confidence 12/12)
Track 12 : OK (v2, confidence 12/12)
Track 13 : OK (v2, confidence 11/11)
Track 14 : OK (v2, confidence 12/12)
Track 15 : OK (v2, confidence 12/12)
Track 16 : OK (v2, confidence 11/11)
Track 17 : OK (v2, confidence 11/11)
Track 18 : OK (v2, confidence 11/11)
Track 19 : OK (v2, confidence 11/11)
Track 20 : OK (v2, confidence 11/11)
Track 21 : OK (v2, confidence 11/11)
Track 22 : OK (v2, confidence 12/12)
->All tracks accurately ripped.

All Tracks
Album gain : -2.89 dB
Peak : 0.999969
Statistics
Read error : 0
Jitter error (maybe fixed) : 0
Retry sector count : 21
Damaged sector count : 0

Track 01
Filename : /Volumes/Music/01 A Song Was Born.flac
Pre-gap length : 00:02:00

Track gain : -4.06 dB
Peak : 0.886627
CRC32 hash (test run) : 74FB3E92
CRC32 hash : 74FB3E92
CRC32 hash (skip zero) : 3676C282
AccurateRip v1 signature : ECF6CD01
AccurateRip v2 signature : F3F01478
->Accurately ripped (v2, confidence 11/11)
Statistics
Read error : 0
Jitter error (maybe fixed) : 0
Retry sector count : 0
Damaged sector count : 0

Track 02
Filename : /Volumes/Music/02 Please Stop Playing Those Blues, Boys.flac
Pre-gap length : 00:02:00

Track gain : -2.60 dB
Peak : 0.907410
CRC32 hash (test run) : C529FBD0
CRC32 hash : C529FBD0
CRC32 hash (skip zero) : ADE7C5DF
AccurateRip v1 signature : BFCF707B
AccurateRip v2 signature : EA51C4F0
->Accurately ripped (v2, confidence 12/12)
Statistics
Read error : 0
Jitter error (maybe fixed) : 0
Retry sector count : 0
Damaged sector count : 0

Track 03
Filename : /Volumes/Music/03 Before Long.flac
Pre-gap length : 00:02:00

Track gain : -3.69 dB
Peak : 0.901062
CRC32 hash (test run) : A060F2E9
CRC32 hash : A060F2E9
CRC32 hash (skip zero) : E64B795F
AccurateRip v1 signature : E582DE67
AccurateRip v2 signature : E6E5E249
->Accurately ripped (v2, confidence 11/11)
Statistics
Read error : 0
Jitter error (maybe fixed) : 0
Retry sector count : 0
Damaged sector count : 0

Track 04
Filename : /Volumes/Music/04 Lovely Weather We're Having.flac
Pre-gap length : 00:02:00

Track gain : -2.82 dB
Peak : 0.928680
CRC32 hash (test run) : 0A32963A
CRC32 hash : 0A32963A
CRC32 hash (skip zero) : F176B95F
AccurateRip v1 signature : 4F5286F2
AccurateRip v2 signature : F06D90A1
->Accurately ripped (v2, confidence 11/11)
Statistics
Read error : 0
Jitter error (maybe fixed) : 0
Retry sector count : 0
Damaged sector count : 0

Track 05
Filename : /Volumes/Music/05 'Taint What You Do.flac
Pre-gap length : 00:02:00

Track gain : -5.06 dB
Peak : 0.862091
CRC32 hash (test run) : 972E4F7E
CRC32 hash : 972E4F7E
CRC32 hash (skip zero) : 622F231C
AccurateRip v1 signature : CDCA05A1
AccurateRip v2 signature : 92D12EE7
->Accurately ripped (v2, confidence 12/12)
Statistics
Read error : 0
Jitter error (maybe fixed) : 0
Retry sector count : 0
Damaged sector count : 0

Track 06
Filename : /Volumes/Music/06 Back O' Town Blues.flac
Pre-gap length : 00:02:00

Track gain : -3.17 dB
Peak : 0.912292
CRC32 hash (test run) : 66D366E0
CRC32 hash : 66D366E0
CRC32 hash (skip zero) : 65C7B2F8
AccurateRip v1 signature : 1D566F16
AccurateRip v2 signature : DDB08B82
->Accurately ripped (v2, confidence 12/12)
Statistics
Read error : 0
Jitter error (maybe fixed) : 0
Retry sector count : 0
Damaged sector count : 0

Track 07
Filename : /Volumes/Music/07 Mack The Knife.flac
Pre-gap length : 00:02:00

Track gain : -2.56 dB
Peak : 0.999969
CRC32 hash (test run) : CC6089E7
CRC32 hash : CC6089E7
CRC32 hash (skip zero) : FCE69E70
AccurateRip v1 signature : B561B478
AccurateRip v2 signature : 14290C38
->Accurately ripped (v2, confidence 12/12)
Statistics
Read error : 0
Jitter error (maybe fixed) : 0
Retry sector count : 0
Damaged sector count : 0

Track 08
Filename : /Volumes/Music/08 Mack The Knife (with Lotte Lenya).flac
Pre-gap length : 00:02:00

Track gain : -1.63 dB
Peak : 0.999969
CRC32 hash (test run) : D6E9065D
CRC32 hash : D6E9065D
CRC32 hash (skip zero) : 6AAD9431
AccurateRip v1 signature : 81763718
AccurateRip v2 signature : 08F1DFC7
->Accurately ripped (v2, confidence 12/12)
Statistics
Read error : 0
Jitter error (maybe fixed) : 0
Retry sector count : 0
Damaged sector count : 0

Track 09
Filename : /Volumes/Music/09 Rain, Rain.flac
Pre-gap length : 00:02:00

Track gain : -4.28 dB
Peak : 0.987396
CRC32 hash (test run) : 08CBE82C
CRC32 hash : 08CBE82C
CRC32 hash (skip zero) : A7369646
AccurateRip v1 signature : 8C7708C9
AccurateRip v2 signature : 72564522
->Accurately ripped (v2, confidence 12/12)
Statistics
Read error : 0
Jitter error (maybe fixed) : 0
Retry sector count : 0
Damaged sector count : 0

Track 10
Filename : /Volumes/Music/10 I Never Saw A Better Day.flac
Pre-gap length : 00:02:00

Track gain : -4.94 dB
Peak : 0.984467
CRC32 hash (test run) : 8407A868
CRC32 hash : 8407A868
CRC32 hash (skip zero) : B6F3E5CD
AccurateRip v1 signature : CAA75264
AccurateRip v2 signature : 7BDB0FCC
->Accurately ripped (v2, confidence 12/12)
Statistics
Read error : 0
Jitter error (maybe fixed) : 0
Retry sector count : 0
Damaged sector count : 0

Track 11
Filename : /Volumes/Music/11 Music To Shave By.flac
Pre-gap length : 00:02:00

Track gain : -3.66 dB
Peak : 0.960907
CRC32 hash (test run) : 75AA339C
CRC32 hash : 75AA339C
CRC32 hash (skip zero) : D763FF4F
AccurateRip v1 signature : BA0FA5D7
AccurateRip v2 signature : 4B7BC461
->Accurately ripped (v2, confidence 12/12)
Statistics
Read error : 0
Jitter error (maybe fixed) : 0
Retry sector count : 0
Damaged sector count : 0

Track 12
Filename : /Volumes/Music/12 Cabaret.flac
Pre-gap length : 00:02:00

Track gain : -2.65 dB
Peak : 0.975067
CRC32 hash (test run) : 9A6004A1
CRC32 hash : 9A6004A1
CRC32 hash (skip zero) : 6A7C25B9
AccurateRip v1 signature : 6AF3D033
AccurateRip v2 signature : 537F8361
->Accurately ripped (v2, confidence 12/12)
Statistics
Read error : 0
Jitter error (maybe fixed) : 0
Retry sector count : 0
Damaged sector count : 0

Track 13
Filename : /Volumes/Music/13 Canal Street Blues.flac
Pre-gap length : 00:02:00

Track gain : -3.99 dB
Peak : 0.974030
CRC32 hash (test run) : C13FC998
CRC32 hash : C13FC998
CRC32 hash (skip zero) : E6CB6B68
AccurateRip v1 signature : 4F5B7745
AccurateRip v2 signature : FECAE7F6
->Accurately ripped (v2, confidence 11/11)
Statistics
Read error : 0
Jitter error (maybe fixed) : 0
Retry sector count : 0
Damaged sector count : 0

Track 14
Filename : /Volumes/Music/14 'Taint What You Do (-5 and discussion from rehearsal take).flac
Pre-gap length : 00:02:00

Track gain : -3.65 dB
Peak : 0.791077
CRC32 hash (test run) : E80AF57C
CRC32 hash : E80AF57C
CRC32 hash (skip zero) : 7707AD47
AccurateRip v1 signature : DEEF28E3
AccurateRip v2 signature : ABB434B4
->Accurately ripped (v2, confidence 12/12)
Statistics
Read error : 0
Jitter error (maybe fixed) : 0
Retry sector count : 0
Damaged sector count : 0

Track 15
Filename : /Volumes/Music/15 Back O' Town Blues (reh).flac
Pre-gap length : 00:02:00

Track gain : -2.10 dB
Peak : 0.977448
CRC32 hash (test run) : 5AE9E990
CRC32 hash : 5AE9E990
CRC32 hash (skip zero) : F2C9F65D
AccurateRip v1 signature : 68B47574
AccurateRip v2 signature : 7A537060
->Accurately ripped (v2, confidence 12/12)
Statistics
Read error : 0
Jitter error (maybe fixed) : 0
Retry sector count : 0
Damaged sector count : 0

Track 16
Filename : /Volumes/Music/16 Mack The Knife (reh #1).flac
Pre-gap length : 00:02:00

Track gain : 1.37 dB
Peak : 0.968231
CRC32 hash (test run) : 6DB64B6F
CRC32 hash : 6DB64B6F
CRC32 hash (skip zero) : E9CB8461
AccurateRip v1 signature : B35DBAC2
AccurateRip v2 signature : 9456B969
->Accurately ripped (v2, confidence 11/11)
Statistics
Read error : 0
Jitter error (maybe fixed) : 0
Retry sector count : 1
Damaged sector count : 0

Track 17
Filename : /Volumes/Music/17 Mack The Knife (-1).flac
Pre-gap length : 00:02:00

Track gain : -0.41 dB
Peak : 0.974182
CRC32 hash (test run) : F0F6025C
CRC32 hash : F0F6025C
CRC32 hash (skip zero) : 75CA1FD9
AccurateRip v1 signature : FC1DCC92
AccurateRip v2 signature : 59AE28B1
->Accurately ripped (v2, confidence 11/11)
Statistics
Read error : 0
Jitter error (maybe fixed) : 0
Retry sector count : 8
Damaged sector count : 0

Track 18
Filename : /Volumes/Music/18 Mack The Knife (reh #2 and voice tracks).flac
Pre-gap length : 00:02:00

Track gain : 2.16 dB
Peak : 0.985260
CRC32 hash (test run) : BCC1C81D
CRC32 hash : BCC1C81D
CRC32 hash (skip zero) : CC32AE20
AccurateRip v1 signature : 704E295B
AccurateRip v2 signature : 6868D31E
->Accurately ripped (v2, confidence 11/11)
Statistics
Read error : 0
Jitter error (maybe fixed) : 0
Retry sector count : 0
Damaged sector count : 0

Track 19
Filename : /Volumes/Music/19 Mack The Knife (-3 and inserts #1-3).flac
Pre-gap length : 00:02:00

Track gain : -0.94 dB
Peak : 0.940674
CRC32 hash (test run) : 78AA7BB6
CRC32 hash : 78AA7BB6
CRC32 hash (skip zero) : 6B8D6B8E
AccurateRip v1 signature : 0156D0F4
AccurateRip v2 signature : DAD5E1AA
->Accurately ripped (v2, confidence 11/11)
Statistics
Read error : 0
Jitter error (maybe fixed) : 0
Retry sector count : 0
Damaged sector count : 0

Track 20
Filename : /Volumes/Music/20 Mack The Knife (-7).flac
Pre-gap length : 00:02:00

Track gain : -2.15 dB
Peak : 0.944458
CRC32 hash (test run) : 784DFE3B
CRC32 hash : 784DFE3B
CRC32 hash (skip zero) : DCB9A5BB
AccurateRip v1 signature : 4D3E7AD9
AccurateRip v2 signature : DCAF7ACF
->Accurately ripped (v2, confidence 11/11)
Statistics
Read error : 0
Jitter error (maybe fixed) : 0
Retry sector count : 0
Damaged sector count : 0

Track 21
Filename : /Volumes/Music/21 Mack The Knife (with Lotte Lenya) (BDs and inserts).flac
Pre-gap length : 00:02:00

Track gain : -1.07 dB
Peak : 0.971832
CRC32 hash (test run) : 3F385FC2
CRC32 hash : 3F385FC2
CRC32 hash (skip zero) : 08CD92C8
AccurateRip v1 signature : 1C560B06
AccurateRip v2 signature : A7A6D4D9
->Accurately ripped (v2, confidence 11/11)
Statistics
Read error : 0
Jitter error (maybe fixed) : 0
Retry sector count : 12
Damaged sector count : 0

Track 22
Filename : /Volumes/Music/22 Mack The Knife (Moritat).flac
Pre-gap length : 00:02:00

Track gain : -3.20 dB
Peak : 0.971710
CRC32 hash (test run) : 4ECAF135
CRC32 hash : 4ECAF135
CRC32 hash (skip zero) : BB962133
AccurateRip v1 signature : 4DCD74BA
AccurateRip v2 signature : F2C52C8F
->Accurately ripped (v2, confidence 12/12)
Statistics
Read error : 0
Jitter error (maybe fixed) : 0
Retry sector count : 0
Damaged sector count : 0

No errors occurred

End of status report

––-BEGIN XLD SIGNATURE––-
g3kvsaOrMxwsXEbEWLj.jgOoExbR.6ErYTwv8TIB0NIdntBp_Pw_riWcKULeEyx5OHDxVH321luLeQZvvpp.09gWx.b6Vc.95I5Euw8
––-END XLD SIGNATURE––-


X Lossless Decoder version 20220917 (155.1)

XLD extraction logfile from 2023-01-27 23:16:29 -0600

Louis Armstrong / The Complete Louis Armstrong D5

Used drive : PIONEER BD-RW BDR-XD05 (revision 3.01)
Media type : Pressed CD

Ripper mode : XLD Secure Ripper
Disable audio cache : OK for the drive with a cache less than 1375KiB
Make use of C2 pointers : NO
Read offset correction : 667
Max retry count : 100
Gap status : Analyzed, Appended (except HTOA)

TOC of the extracted CD
Track | Start | Length | Start sector | End sector
––––––––––––––––––––––––––––-
1 | 00:00:00 | 02:55:48 | 0 | 13172
2 | 02:55:48 | 04:55:53 | 13173 | 35350
3 | 07:51:26 | 04:28:63 | 35351 | 55513
4 | 12:20:14 | 05:06:18 | 55514 | 78481
5 | 17:26:32 | 03:22:15 | 78482 | 93646
6 | 20:48:47 | 05:16:61 | 93647 | 117407
7 | 26:05:33 | 03:12:26 | 117408 | 131833
8 | 29:17:59 | 04:39:28 | 131834 | 152786
9 | 33:57:12 | 04:01:18 | 152787 | 170879
10 | 37:58:30 | 04:56:03 | 170880 | 193082
11 | 42:54:33 | 03:11:74 | 193083 | 207481
12 | 46:06:32 | 04:37:44 | 207482 | 228300
13 | 50:44:01 | 06:38:57 | 228301 | 258207
14 | 57:22:58 | 05:32:71 | 258208 | 283178
15 | 62:55:54 | 04:46:32 | 283179 | 304660
16 | 67:42:11 | 04:45:49 | 304661 | 326084
17 | 72:27:60 | 06:19:13 | 326085 | 354522

AccurateRip Summary (DiscID: 002dd8b6-024ba8a1-06127611)
Track 01 : OK (v2, confidence 13/13)
Track 02 : OK (v2, confidence 13/13)
Track 03 : OK (v2, confidence 13/13)
Track 04 : OK (v2, confidence 12/12)
Track 05 : OK (v2, confidence 12/12)
Track 06 : OK (v2, confidence 12/12)
Track 07 : OK (v2, confidence 12/12)
Track 08 : OK (v2, confidence 12/12)
Track 09 : OK (v2, confidence 12/12)
Track 10 : OK (v2, confidence 12/12)
Track 11 : OK (v2, confidence 12/12)
Track 12 : OK (v2, confidence 12/12)
Track 13 : OK (v2, confidence 12/12)
Track 14 : OK (v2, confidence 12/12)
Track 15 : OK (v2, confidence 12/12)
Track 16 : OK (v2, confidence 12/12)
Track 17 : OK (v2, confidence 12/12)
->All tracks accurately ripped.

All Tracks
Album gain : -3.35 dB
Peak : 0.985657
Statistics
Read error : 0
Jitter error (maybe fixed) : 0
Retry sector count : 0
Damaged sector count : 0

Track 01
Filename : /Volumes/Music/01 Honeysuckle Rose.flac
Pre-gap length : 00:02:00

Track gain : -2.66 dB
Peak : 0.975220
CRC32 hash (test run) : AEAF3843
CRC32 hash : AEAF3843
CRC32 hash (skip zero) : 14248388
AccurateRip v1 signature : 91D0EEF9
AccurateRip v2 signature : A487A495
->Accurately ripped (v2, confidence 13/13)
Statistics
Read error : 0
Jitter error (maybe fixed) : 0
Retry sector count : 0
Damaged sector count : 0

Track 02
Filename : /Volumes/Music/02 Blue Turning Grey Over You.flac
Pre-gap length : 00:02:00

Track gain : -2.61 dB
Peak : 0.966980
CRC32 hash (test run) : D2243682
CRC32 hash : D2243682
CRC32 hash (skip zero) : 14D37B04
AccurateRip v1 signature : 4E3D8D5B
AccurateRip v2 signature : D79A7D09
->Accurately ripped (v2, confidence 13/13)
Statistics
Read error : 0
Jitter error (maybe fixed) : 0
Retry sector count : 0
Damaged sector count : 0

Track 03
Filename : /Volumes/Music/03 I'm Crazy 'Bout My Baby.flac
Pre-gap length : 00:02:00

Track gain : -2.78 dB
Peak : 0.931732
CRC32 hash (test run) : 903EB474
CRC32 hash : 903EB474
CRC32 hash (skip zero) : 3CD23A11
AccurateRip v1 signature : 679CF11D
AccurateRip v2 signature : 15B56023
->Accurately ripped (v2, confidence 13/13)
Statistics
Read error : 0
Jitter error (maybe fixed) : 0
Retry sector count : 0
Damaged sector count : 0

Track 04
Filename : /Volumes/Music/04 Squeeze Me.flac
Pre-gap length : 00:02:00

Track gain : -3.17 dB
Peak : 0.950195
CRC32 hash (test run) : A3EC6007
CRC32 hash : A3EC6007
CRC32 hash (skip zero) : 11F4B265
AccurateRip v1 signature : 34961B0D
AccurateRip v2 signature : DF55B18B
->Accurately ripped (v2, confidence 12/12)
Statistics
Read error : 0
Jitter error (maybe fixed) : 0
Retry sector count : 0
Damaged sector count : 0

Track 05
Filename : /Volumes/Music/05 Keepin' Out Of Mischief Now.flac
Pre-gap length : 00:02:00

Track gain : -4.06 dB
Peak : 0.948303
CRC32 hash (test run) : B00C788B
CRC32 hash : B00C788B
CRC32 hash (skip zero) : EE0E2E6E
AccurateRip v1 signature : A514007C
AccurateRip v2 signature : 1EC3A978
->Accurately ripped (v2, confidence 12/12)
Statistics
Read error : 0
Jitter error (maybe fixed) : 0
Retry sector count : 0
Damaged sector count : 0

Track 06
Filename : /Volumes/Music/06 All That Meat And No Potatoes.flac
Pre-gap length : 00:02:00

Track gain : -3.55 dB
Peak : 0.969177
CRC32 hash (test run) : BFFCA35A
CRC32 hash : BFFCA35A
CRC32 hash (skip zero) : 38CB1DFE
AccurateRip v1 signature : BCE7B4BB
AccurateRip v2 signature : BBC94AD3
->Accurately ripped (v2, confidence 12/12)
Statistics
Read error : 0
Jitter error (maybe fixed) : 0
Retry sector count : 0
Damaged sector count : 0

Track 07
Filename : /Volumes/Music/07 I've Got A Feeling I'm Falling.flac
Pre-gap length : 00:02:00

Track gain : -3.93 dB
Peak : 0.939362
CRC32 hash (test run) : 686226F7
CRC32 hash : 686226F7
CRC32 hash (skip zero) : 2F4465EB
AccurateRip v1 signature : 0238784B
AccurateRip v2 signature : D1BAC9C4
->Accurately ripped (v2, confidence 12/12)
Statistics
Read error : 0
Jitter error (maybe fixed) : 0
Retry sector count : 0
Damaged sector count : 0

Track 08
Filename : /Volumes/Music/08 Black And Blue.flac
Pre-gap length : 00:02:00

Track gain : -2.30 dB
Peak : 0.962830
CRC32 hash (test run) : 01D0E61B
CRC32 hash : 01D0E61B
CRC32 hash (skip zero) : 83246873
AccurateRip v1 signature : 2173F86F
AccurateRip v2 signature : 2A000AF7
->Accurately ripped (v2, confidence 12/12)
Statistics
Read error : 0
Jitter error (maybe fixed) : 0
Retry sector count : 0
Damaged sector count : 0

Track 09
Filename : /Volumes/Music/09 Ain't Misbehavin'.flac
Pre-gap length : 00:02:00

Track gain : -4.39 dB
Peak : 0.953217
CRC32 hash (test run) : A3CA6AF2
CRC32 hash : A3CA6AF2
CRC32 hash (skip zero) : D236F49C
AccurateRip v1 signature : 8563689E
AccurateRip v2 signature : 659BDCE7
->Accurately ripped (v2, confidence 12/12)
Statistics
Read error : 0
Jitter error (maybe fixed) : 0
Retry sector count : 0
Damaged sector count : 0

Track 10
Filename : /Volumes/Music/10 Honeysuckle Rose (-1).flac
Pre-gap length : 00:02:00

Track gain : -3.81 dB
Peak : 0.974121
CRC32 hash (test run) : A13678EA
CRC32 hash : A13678EA
CRC32 hash (skip zero) : 17D3E8E5
AccurateRip v1 signature : 2A9A7588
AccurateRip v2 signature : A5072D63
->Accurately ripped (v2, confidence 12/12)
Statistics
Read error : 0
Jitter error (maybe fixed) : 0
Retry sector count : 0
Damaged sector count : 0

Track 11
Filename : /Volumes/Music/11 Honeysuckle Rose (-5).flac
Pre-gap length : 00:02:00

Track gain : -3.72 dB
Peak : 0.978455
CRC32 hash (test run) : DC51025A
CRC32 hash : DC51025A
CRC32 hash (skip zero) : 76EDC866
AccurateRip v1 signature : 2D659CA5
AccurateRip v2 signature : 6FBAA5A1
->Accurately ripped (v2, confidence 12/12)
Statistics
Read error : 0
Jitter error (maybe fixed) : 0
Retry sector count : 0
Damaged sector count : 0

Track 12
Filename : /Volumes/Music/12 Blue Turning Grey Over You (-2).flac
Pre-gap length : 00:02:00

Track gain : -3.32 dB
Peak : 0.960266
CRC32 hash (test run) : A11D9C87
CRC32 hash : A11D9C87
CRC32 hash (skip zero) : 4350D5FF
AccurateRip v1 signature : 865874A3
AccurateRip v2 signature : 35C6C689
->Accurately ripped (v2, confidence 12/12)
Statistics
Read error : 0
Jitter error (maybe fixed) : 0
Retry sector count : 0
Damaged sector count : 0

Track 13
Filename : /Volumes/Music/13 Blue Turning Grey Over You (-3 and inserts).flac
Pre-gap length : 00:02:00

Track gain : -3.10 dB
Peak : 0.979675
CRC32 hash (test run) : ABCD0C8D
CRC32 hash : ABCD0C8D
CRC32 hash (skip zero) : 2FBEC5E6
AccurateRip v1 signature : 6CA7B62E
AccurateRip v2 signature : 1153E23A
->Accurately ripped (v2, confidence 12/12)
Statistics
Read error : 0
Jitter error (maybe fixed) : 0
Retry sector count : 0
Damaged sector count : 0

Track 14
Filename : /Volumes/Music/14 Blue Turning Grey Over You (-5).flac
Pre-gap length : 00:01:69

Track gain : -3.18 dB
Peak : 0.950684
CRC32 hash (test run) : A6F94E13
CRC32 hash : A6F94E13
CRC32 hash (skip zero) : 26FFAA37
AccurateRip v1 signature : F4F32164
AccurateRip v2 signature : 83348811
->Accurately ripped (v2, confidence 12/12)
Statistics
Read error : 0
Jitter error (maybe fixed) : 0
Retry sector count : 0
Damaged sector count : 0

Track 15
Filename : /Volumes/Music/15 I'm Crazy 'Bout My Baby (-3).flac
Pre-gap length : 00:01:30

Track gain : -3.03 dB
Peak : 0.985657
CRC32 hash (test run) : 9728BA70
CRC32 hash : 9728BA70
CRC32 hash (skip zero) : F2A01693
AccurateRip v1 signature : E28D0D13
AccurateRip v2 signature : 4C2C9C5D
->Accurately ripped (v2, confidence 12/12)
Statistics
Read error : 0
Jitter error (maybe fixed) : 0
Retry sector count : 0
Damaged sector count : 0

Track 16
Filename : /Volumes/Music/16 I'm Crazy 'Bout My Baby (-5).flac
Pre-gap length : 00:01:74

Track gain : -3.34 dB
Peak : 0.973541
CRC32 hash (test run) : F4AE3CF0
CRC32 hash : F4AE3CF0
CRC32 hash (skip zero) : 6F0D85DB
AccurateRip v1 signature : 8C976DC5
AccurateRip v2 signature : 9F083098
->Accurately ripped (v2, confidence 12/12)
Statistics
Read error : 0
Jitter error (maybe fixed) : 0
Retry sector count : 0
Damaged sector count : 0

Track 17
Filename : /Volumes/Music/17 Squeeze Me (-1).flac
Pre-gap length : 00:01:74

Track gain : -3.23 dB
Peak : 0.960175
CRC32 hash (test run) : 59C0C02F
CRC32 hash : 59C0C02F
CRC32 hash (skip zero) : E8FFE9B0
AccurateRip v1 signature : D56F0310
AccurateRip v2 signature : CE6A0015
->Accurately ripped (v2, confidence 12/12)
Statistics
Read error : 0
Jitter error (maybe fixed) : 0
Retry sector count : 0
Damaged sector count : 0

No errors occurred

End of status report

––-BEGIN XLD SIGNATURE––-
ndqM4SMWeVwJ0eebhKjziKUzAB0pEFMfa.kiUNYFSwX7d3D0qN28jjmbUq2PMmX5Hp4IfmHH_kCCIgW_uQw6kguTCJTRZJP4PFAgac0
––-END XLD SIGNATURE––-