Tags
Language
Tags
July 2024
Su Mo Tu We Th Fr Sa
30 1 2 3 4 5 6
7 8 9 10 11 12 13
14 15 16 17 18 19 20
21 22 23 24 25 26 27
28 29 30 31 1 2 3

The King's Singers - Street Songs (1998)

Posted By: tirexiss
The King's Singers - Street Songs (1998)

The King's Singers - Street Songs (1998)
EAC | FLAC (image+.cue, log) | Covers Included | 63:15 | 298 MB
Genre: Classical, Vocal | Label: RCA Victor Red Seal | Catalog: 09026-63175-2

The King’s Singers join forces with percussion Evelyn Glennie on this disc, with commissions from composers based in Johannesburg and the Western Cape alongside Steve Martland’s Street Songs, diverse settings of English children’s rhymes. The recording of the disc was accompanied by a major international tour to celebrate the 30th anniversary of the ensemble.

The King's Singers - Street Songs (1998)

Track List:

1. Poor Roger
2. In a far off place
3. Prayer to the new moon
4. Blue mist like smoke
5. Rainmaking with a bowstring
6. Song of the broken string
7. Oranges and Lemons
8. Horizons
9. Reaching Out - Evelyn Glennie
10. Ilihubo
11. Mambabo!
12. Lala Mntwana
13. Uhambo Ngesitimela
14. E-Goli
15. Umdanso WaseGoli
16. Green Gravel
17. Giles - Evelyn Glennie
18. Jenny Jones

Exact Audio Copy V0.99 prebeta 4 from 23. January 2008

Отчёт EAC об извлечении, выполненном 19. января 2009, 23:25

Evelyn Glennie & the King's Singers / The Street Songs

Дисковод: _NEC DVD_RW ND-4570A Adapter: 5 ID: 0

Режим чтения : Достоверность
Использование точного потока : Да
Отключение кэша аудио : Да
Использование указателей C2 : Нет

Коррекция смещения при чтении : 48
Способность читать области Lead-in и Lead-out : Нет
Заполнение пропущенных сэмплов тишиной : Да
Удаление блоков с тишиной в начале и конце : Нет
При вычислениях CRC использовались нулевые сэмплы : Да
Интерфейс : Установленный внешний ASPI-интерфейс

Выходной формат : Внутренние WAV-операции
Формат сэмплов : 44.100 Гц; 16 бит; стерео


TOC извлечённого CD

Трек | Старт | Длительность | Начальный сектор | Конечный сектор
––––––––––––––––––––––––––––––––––-
1 | 0:00.00 | 3:18.55 | 0 | 14904
2 | 3:18.55 | 3:20.05 | 14905 | 29909
3 | 6:38.60 | 4:18.20 | 29910 | 49279
4 | 10:57.05 | 1:41.25 | 49280 | 56879
5 | 12:38.30 | 3:14.72 | 56880 | 71501
6 | 15:53.27 | 3:35.03 | 71502 | 87629
7 | 19:28.30 | 4:55.07 | 87630 | 109761
8 | 24:23.37 | 6:52.53 | 109762 | 140714
9 | 31:16.15 | 11:17.47 | 140715 | 191536
10 | 42:33.62 | 1:02.63 | 191537 | 196249
11 | 43:36.50 | 2:04.37 | 196250 | 205586
12 | 45:41.12 | 3:11.25 | 205587 | 219936
13 | 48:52.37 | 1:30.55 | 219937 | 226741
14 | 50:23.17 | 2:49.03 | 226742 | 239419
15 | 53:12.20 | 2:14.45 | 239420 | 249514
16 | 55:26.65 | 5:22.20 | 249515 | 273684
17 | 60:49.10 | 5:50.50 | 273685 | 299984
18 | 66:39.60 | 8:09.32 | 299985 | 336691


Характеристики диапазона извлечения и сообщения об ошибках

Выбранный диапазон

Имя файла J:\The King's Singers - Street Songs\Evelyn Glennie & the King's Singers - The Street Songs.wav

Пиковый уровень 97.7 %
Качество диапазона 99.8 %
CRC теста C60B2115
CRC копии C60B2115
Копирование… OK

Ошибок не произошло


AccurateRip: сводка

Трек 1 нет в базе данных
Трек 2 нет в базе данных
Трек 3 нет в базе данных
Трек 4 нет в базе данных
Трек 5 нет в базе данных
Трек 6 нет в базе данных
Трек 7 нет в базе данных
Трек 8 нет в базе данных
Трек 9 нет в базе данных
Трек 10 нет в базе данных
Трек 11 нет в базе данных
Трек 12 нет в базе данных
Трек 13 нет в базе данных
Трек 14 нет в базе данных
Трек 15 нет в базе данных
Трек 16 нет в базе данных
Трек 17 нет в базе данных
Трек 18 нет в базе данных

Ни одного трека нет в базе AccurateRip

Конец отчёта

Thanks to the Original ripper (unknown)!

Download: