Tags
Language
Tags
July 2024
Su Mo Tu We Th Fr Sa
30 1 2 3 4 5 6
7 8 9 10 11 12 13
14 15 16 17 18 19 20
21 22 23 24 25 26 27
28 29 30 31 1 2 3

New Chamber Opera Ensemble, Gary Cooper - Rameau: Complete Cantatas (1998)

Posted By: tirexiss
New Chamber Opera Ensemble, Gary Cooper - Rameau: Complete Cantatas (1998)

New Chamber Opera Ensemble, Gary Cooper - Rameau: Complete Cantatas (1998)
EAC | FLAC (image+.cue, log) | Covers Included | 02:12:19 | 656 MB
Genre: Classical, Vocal | Label: ASV Digital | Catalog: 234

The New Chamber Opera Ensemble made an impact upon me a year ago with its first recording for ASV of Charpentier’s Le mariage forcé and Les fous divertissements. Now it follows that release with a two-disc set of Rameau’s complete cantatas – seven of them, with two versions of Aquilon et Orithie – and it is another fine effort that puts them at the very forefront of the youngest generation of practitioners of period-style performance. Each cantata is a beautifully distilled scene, rather more than mere proving ground for Rameau’s operas (all but the Cantata for St Louis’s Day, of around 1740, predate them). And as one might expect there are many delights to be found in the instrumentation, a department in which Rameau excelled all his contemporaries. Gary Cooper, who directs from the harpsichord, shapes every phrase with a sure instinct and unfailing elegance, knowing exactly when to push the music onward, when to indulge his listeners, and his vocal team – Rachel Elliott, James Gilchrist, Roderick Williams and Thomas Guthrie – sing with the easy flowing lines and deft ornamentation that this lovely music demands. Stephen Pettitt

New Chamber Opera Ensemble, Gary Cooper - Rameau: Complete Cantatas (1998)

Track List:

CD 1
Orphee
1. Recitatif - Air tres gai
2. Reciitatif - Air gracieux
3. Recitatif accompagne - Air
4. Recitatif - Air gai
Aquilon et Orithie (revised version)
5. Recitatif - Air un peu gai
6. Recitatif - Air vivement
7. Recitatif - Air gracieusement et un peu pique
Les Amants Trahis
8. Recitatif- Duo
9. Recitatif - Air
10. Recitatif en Duo - Air & Duo
11. Recitatif - Air
12. Recitatif - Air
13. LRecitatif - Duo
Cantate pour le Jour de la Saint-Louis
14. Prelude- Recitatif - Air - Andante
15. Recitatif- Air gracieux et vif
16. Recitatif- Air vif

Exact Audio Copy V0.99 prebeta 4 from 23. January 2008

EAC extraction logfile from 24. February 2010, 9:52

New Chamber Opera Ensemble / Rameau - Complete Cantatas

Used drive : ASUS DRW-1814BLT Adapter: 2 ID: 2

Read mode : Secure
Utilize accurate stream : Yes
Defeat audio cache : Yes
Make use of C2 pointers : No

Read offset correction : 6
Overread into Lead-In and Lead-Out : No
Fill up missing offset samples with silence : Yes
Delete leading and trailing silent blocks : No
Null samples used in CRC calculations : Yes
Used interface : Native Win32 interface for Win NT & 2000

Used output format : Internal WAV Routines
Sample format : 44.100 Hz; 16 Bit; Stereo


TOC of the extracted CD

Track | Start | Length | Start sector | End sector
––––––––––––––––––––––––––––-
1 | 0:00.00 | 5:18.63 | 0 | 23912
2 | 5:18.63 | 1:28.70 | 23913 | 30582
3 | 6:47.58 | 5:13.25 | 30583 | 54082
4 | 12:01.08 | 4:52.40 | 54083 | 76022
5 | 16:53.48 | 4:16.42 | 76023 | 95264
6 | 21:10.15 | 4:18.68 | 95265 | 114682
7 | 25:29.08 | 5:40.65 | 114683 | 140247
8 | 31:09.73 | 2:57.32 | 140248 | 153554
9 | 34:07.30 | 3:31.33 | 153555 | 169412
10 | 37:38.63 | 2:03.52 | 169413 | 178689
11 | 39:42.40 | 3:00.35 | 178690 | 192224
12 | 42:43.00 | 6:34.28 | 192225 | 221802
13 | 49:17.28 | 6:51.55 | 221803 | 252682
14 | 56:09.08 | 6:31.30 | 252683 | 282037
15 | 62:40.38 | 4:32.65 | 282038 | 302502
16 | 67:13.28 | 4:50.37 | 302503 | 324289


Range status and errors

Selected range

Filename D:\EAC\New Chamber Opera Ensemble - Rameau - Complete Cantatas.wav

Peak level 100.0 %
Range quality 100.0 %
Copy CRC 4E7A22CE
Copy OK

No errors occurred


AccurateRip summary

Track 1 not present in database
Track 2 not present in database
Track 3 not present in database
Track 4 not present in database
Track 5 not present in database
Track 6 not present in database
Track 7 not present in database
Track 8 not present in database
Track 9 not present in database
Track 10 not present in database
Track 11 not present in database
Track 12 not present in database
Track 13 not present in database
Track 14 not present in database
Track 15 not present in database
Track 16 not present in database

None of the tracks are present in the AccurateRip database

End of status report

CD 2
Aquilon et Orithie (original version)
1. Rceitatif- Air un peu gai
2. Recitatif- Air vivmeent
3. Recitatif - Air gracieusement et un pei pique
Le Berger Fidele
4. Recitatif - Air plaintif
5. Recitatif - Air gai
6. Recitatif accompagne - Air vif et gracieux
L'Impatience
7. Recitatif - Air gai
8. Recitatif - Air tendre
9. Recitatif - Air leger
Thetis
10. Prelude gravement
11. Recitatif - Air vivement
12. Recitatif - Air leger
13. Recitatif - Air gracieusement et sans lenteur
14. Cantate pour le Jour de la Saint-Louis- Air vif (version 2)

Exact Audio Copy V0.99 prebeta 4 from 23. January 2008

EAC extraction logfile from 24. February 2010, 11:41

New Chamber Opera Ensemble / Rameau - Complete Cantatas cd2

Used drive : ASUS DRW-1814BLT Adapter: 2 ID: 2

Read mode : Secure
Utilize accurate stream : Yes
Defeat audio cache : Yes
Make use of C2 pointers : No

Read offset correction : 6
Overread into Lead-In and Lead-Out : No
Fill up missing offset samples with silence : Yes
Delete leading and trailing silent blocks : No
Null samples used in CRC calculations : Yes
Used interface : Native Win32 interface for Win NT & 2000

Used output format : Internal WAV Routines
Sample format : 44.100 Hz; 16 Bit; Stereo


TOC of the extracted CD

Track | Start | Length | Start sector | End sector
––––––––––––––––––––––––––––-
1 | 0:00.00 | 4:07.30 | 0 | 18554
2 | 4:07.30 | 4:27.18 | 18555 | 38597
3 | 8:34.48 | 6:39.65 | 38598 | 68587
4 | 15:14.38 | 5:27.30 | 68588 | 93142
5 | 20:41.68 | 4:53.15 | 93143 | 115132
6 | 25:35.08 | 5:17.65 | 115133 | 138972
7 | 30:52.73 | 5:07.05 | 138973 | 162002
8 | 36:00.03 | 5:03.15 | 162003 | 184742
9 | 41:03.18 | 4:49.20 | 184743 | 206437
10 | 45:52.38 | 1:40.60 | 206438 | 213997
11 | 47:33.23 | 3:18.55 | 213998 | 228902
12 | 50:52.03 | 2:38.60 | 228903 | 240812
13 | 53:30.63 | 3:22.17 | 240813 | 255979
14 | 56:53.05 | 3:38.58 | 255980 | 272387


Range status and errors

Selected range

Filename D:\EAC\New Chamber Opera Ensemble - Rameau - Complete Cantatas cd2.wav

Peak level 100.0 %
Range quality 100.0 %
Copy CRC 330B4EE4
Copy OK

No errors occurred


AccurateRip summary

Track 1 not present in database
Track 2 not present in database
Track 3 not present in database
Track 4 not present in database
Track 5 not present in database
Track 6 not present in database
Track 7 not present in database
Track 8 not present in database
Track 9 not present in database
Track 10 not present in database
Track 11 not present in database
Track 12 not present in database
Track 13 not present in database
Track 14 not present in database

None of the tracks are present in the AccurateRip database

End of status report

Performers:
Rachel Elliot - soprano
James Gilchrist - tenor
Roderick Williams - baritone
Thomas Guthrie - bass
New Chamber Opera Ensemble
Conductor: Gary Cooper

Thanks to the Original ripper (unknown)!

Download: