Tags
Language
Tags
June 2024
Su Mo Tu We Th Fr Sa
26 27 28 29 30 31 1
2 3 4 5 6 7 8
9 10 11 12 13 14 15
16 17 18 19 20 21 22
23 24 25 26 27 28 29
30 1 2 3 4 5 6

The Trammps - Burn Baby Burn - Disco Inferno (The Trammps Albums 1975-1980) (2022)

Posted By: Rtax
The Trammps - Burn Baby Burn - Disco Inferno (The Trammps Albums 1975-1980) (2022)

The Trammps - Burn Baby Burn - Disco Inferno (The Trammps Albums 1975-1980) (2022)
EAC Rip | FLAC (tracks, cue, log) - 2.2 GB
5:53:49 | Soul, Funk, Disco | Label: Robinsongs

The complete Trammps’ albums from 1975 through 1980 including all of their biggest hits on eight fantastic CDs. Featuring the albums ‘The Trammps’, ‘The Legendary Zing Album’, ‘Where The Happy People Go’, ‘Disco Inferno’, ‘III’, ‘The Whole World’s Dancing’, ‘Mixin’ It Up’ and ‘Slipping Out’. With comprehensive sleeve notes by MOJO and Record Collector’s contributor Charles Waring.The Trammps’ features the single ‘Love Epidemic’ which was to launch them into the world of Disco, their next Album ‘The Legendary Zing Album’ propelled them into Disco superstardom, featuring the Top 10 US R&B and top five UK smash hit ‘Hold Back The Night’, the album also features the singles ‘Zing Went The Strings Of My Heart’ and ‘Sixty Minute Man’.

Then came their Atlantic label debut ‘Where The Happy People Go’ and the single of the same name that charted in the US and UK; the album also features the single ‘Soul Searchin’ Time’, the 7” version featuring as a bonus track.

‘Disco Inferno’, probably the Trammps’ best known track featured on the album of the same name, this ten-minute-plus smash also featured on the Saturday Night Fever soundtrack, which spawned one of the biggest selling soundtrack albums of all time. The single went Top10 R&B in America and Top 20 in the UK Chart. The album, certified Gold in the USA, also featured the single ‘I Feel Like I’ve Been Living (On The Dark Side Of The Moon)’. The track ‘Disco Inferno’ was inducted into the Dance Music Hall of Fame.

If there’s one song that epitomises the disco era at its glorious fiery zenith, it’s ‘Disco Inferno,’ an incendiary dance floor anthem that brought the Philadelphia group immortality. Covered by artists as diverse as Tina Turner and Cyndi Lauper and sampled by both Madonna and Notorious BIG, ‘Disco Inferno’ marks the undoubted highpoint of their career. That said, the 74 songs featured on this 8CD box set are the epitome of Disco of the late ‘70s.

Tracklist
DISC ONE:

Trammps
1 Stop and Think
2 Trusting Heart
3 Every Dream I Dream Is You
4 Love Epidemic
5 Save A Place
6 Trammps Disco Theme
7 Where Do We Go from Here
8 Down Three Dark Streets
9 I Know That Feeling
10 Shout

DISC TWO:

The Legendary Zing Album
1 Penguin at the Big Apple / Zing Went the Strings of My Heart
2 Pray All You Sinners
3 Sixty Minute Man
4 Scruboard
5 Tom’s Song
6 Rubber Band
7 Hold Back the Night
8 Penguin at the Big Apple Bonus Track
9 Zing Went The Strings Of My Heart (7” Version)

DISC THREE:

Where The Happy People Go
1 Soul Searchin’ Time
2 That’s Where The Happy People Go
3 Can We Come Together
4 Disco Party
5 Ninety-Nine And A Half
6 Hooked For Life
7 Love Is A Funky Thing Bonus Tracks
8 Soul Searchin’ Time (Single Edit)
9 That’s Where The Happy People Go (Single Edit)
10 Ninety-Nine And A Half (Single Edit)
11 Hooked For Life (Single Edit)

DISC FOUR:

Disco Inferno
1 Body Contact Contract
2 Starvin’
3 I Feel Like I’ve Been Living (On The Dark Side Of The Moon)
4 Disco Inferno
5 Don’t Burn No Bridges
6 You Touch My Hot Line Bonus Track
7 Disco Inferno (Single Edit)

DISC FIVE:

III
1 The Night The Lights Went Out
2 Love Per Hour
3 People Of The World Rise
4 Living The Life
5 Seasons For The Girls
6 Life Ain’t Been Easy
7 I’m So Glad You Came Along
8 It Don’t Take Much

Bonus Tracks
9 The Night The Lights Went Out (Single Edit)
10 Seasons For Girls (Single Edit)

DISC SIX:

The Whole World’s Dancing
1 Love Insurance Policy
2 Teaser
3 The Whole World’s Dancing
4 My Love, It’s Never Been Better
5 Soul Bones
6 Love Magnet
7 More Good Times To Remember Bonus Tracks
8 Teaser (Single Edit)
9 The Whole World’s Dancing (Single Edit)

DISC SEVEN:

Mixin’ It Up
1 Hard Rock And Disco
2 You Can Make It
3 Music Freek
4 Dance Contest
5 Everybody Boogie
6 VIP
7 Let Me Dance Real Close
8 Wake Me Up From Yesterday Bonus Track
9 Hard Rock And Disco (Single Edit)

DISC EIGHT:

Slipping Out
1 Loveland
2 Trained-Eye
3 Mellow Out
4 Groove All Mighty
5 Looking For You
6 Our Thought (Slipping Away)
7 I Don’t Want To Ever Lose Your Love
8 Is There Any Room For Me
9 Breathtaking View
Exact Audio Copy V1.3 from 2. September 2016

EAC extraction logfile from 23. May 2022, 20:12

The Trammps / Trammps

Used drive : HL-DT-STBD-RE BH16NS55 Adapter: 1 ID: 0

Read mode : Secure
Utilize accurate stream : Yes
Defeat audio cache : Yes
Make use of C2 pointers : No

Read offset correction : 6
Overread into Lead-In and Lead-Out : No
Fill up missing offset samples with silence : Yes
Delete leading and trailing silent blocks : No
Null samples used in CRC calculations : Yes
Used interface : Native Win32 interface for Win NT & 2000
Gap handling : Appended to previous track

Used output format : User Defined Encoder
Selected bitrate : 1024 kBit/s
Quality : High
Add ID3 tag : No
Command line compressor : C:\Program Files (x86)\Exact Audio Copy\Flac\flac.exe
Additional command line options : -8 -V -T "ARTIST=%artist%" -T "TITLE=%title%" -T "ALBUM=%albumtitle%" -T "DATE=%year%" -T "TRACKNUMBER=%tracknr%" -T "GENRE=%genre%" -T "PERFORMER=%albuminterpret%" -T "COMPOSER=%composer%" %haslyrics%–tag-from-file=LYRICS="%lyricsfile%"%haslyrics% -T "ALBUMARTIST=%albumartist%" -T "DISCNUMBER=%cdnumber%" -T "TOTALDISCS=%totalcds%" -T "TOTALTRACKS=%numtracks%" -T "COMMENT=%comment%" %source% -o %dest%


TOC of the extracted CD

Track | Start | Length | Start sector | End sector
––––––––––––––––––––––––––––-
1 | 0:00.00 | 3:11.45 | 0 | 14369
2 | 3:11.45 | 3:19.58 | 14370 | 29352
3 | 6:31.28 | 4:00.09 | 29353 | 47361
4 | 10:31.37 | 4:52.41 | 47362 | 69302
5 | 15:24.03 | 5:02.29 | 69303 | 91981
6 | 20:26.32 | 3:23.50 | 91982 | 107256
7 | 23:50.07 | 4:22.40 | 107257 | 126946
8 | 28:12.47 | 5:01.68 | 126947 | 149589
9 | 33:14.40 | 3:11.56 | 149590 | 163970
10 | 36:26.21 | 3:30.11 | 163971 | 179731


Track 1

Filename D:\#cdr\#wav+flac\#New\The Trammps - Burn Baby Burn\cd 1\01. The Trammps - Stop And Think.wav

Pre-gap length 0:00:02.00

Peak level 94.3 %
Extraction speed 4.1 X
Track quality 100.0 %
Test CRC ED704F25
Copy CRC ED704F25
Accurately ripped (confidence 1) [68069CEF] (AR v2)
Copy OK

Track 2

Filename D:\#cdr\#wav+flac\#New\The Trammps - Burn Baby Burn\cd 1\02. The Trammps - Trusting Heart.wav

Pre-gap length 0:00:01.98

Peak level 76.7 %
Extraction speed 4.6 X
Track quality 100.0 %
Test CRC 2110F4EC
Copy CRC 2110F4EC
Accurately ripped (confidence 1) [30A5260E] (AR v2)
Copy OK

Track 3

Filename D:\#cdr\#wav+flac\#New\The Trammps - Burn Baby Burn\cd 1\03. The Trammps - Every Dream I Dream Is You.wav

Pre-gap length 0:00:02.50

Peak level 76.6 %
Extraction speed 5.1 X
Track quality 100.0 %
Test CRC A3DD21C5
Copy CRC A3DD21C5
Accurately ripped (confidence 1) [2991B18C] (AR v2)
Copy OK

Track 4

Filename D:\#cdr\#wav+flac\#New\The Trammps - Burn Baby Burn\cd 1\04. The Trammps - Love Epidemic.wav

Pre-gap length 0:00:01.60

Peak level 82.2 %
Extraction speed 5.6 X
Track quality 100.0 %
Test CRC CBD51D36
Copy CRC CBD51D36
Accurately ripped (confidence 1) [3171B15E] (AR v2)
Copy OK

Track 5

Filename D:\#cdr\#wav+flac\#New\The Trammps - Burn Baby Burn\cd 1\05. The Trammps - Save A Place.wav

Pre-gap length 0:00:01.25

Peak level 94.2 %
Extraction speed 6.2 X
Track quality 100.0 %
Test CRC 63804B53
Copy CRC 63804B53
Accurately ripped (confidence 1) [194C1B44] (AR v2)
Copy OK

Track 6

Filename D:\#cdr\#wav+flac\#New\The Trammps - Burn Baby Burn\cd 1\06. The Trammps - Trammps Disco Theme.wav

Pre-gap length 0:00:02.33

Peak level 84.0 %
Extraction speed 6.2 X
Track quality 100.0 %
Test CRC 49B8FC9E
Copy CRC 49B8FC9E
Accurately ripped (confidence 1) [23DA13CC] (AR v2)
Copy OK

Track 7

Filename D:\#cdr\#wav+flac\#New\The Trammps - Burn Baby Burn\cd 1\07. The Trammps - Where Do We Go From Here.wav

Pre-gap length 0:00:00.54

Peak level 60.3 %
Extraction speed 6.7 X
Track quality 100.0 %
Test CRC 0623E410
Copy CRC 0623E410
Accurately ripped (confidence 1) [2731D4D1] (AR v2)
Copy OK

Track 8

Filename D:\#cdr\#wav+flac\#New\The Trammps - Burn Baby Burn\cd 1\08. The Trammps - Down Three Dark Streets.wav

Pre-gap length 0:00:01.21

Peak level 94.3 %
Extraction speed 7.2 X
Track quality 100.0 %
Test CRC 427F82B9
Copy CRC 427F82B9
Accurately ripped (confidence 1) [3097D539] (AR v2)
Copy OK

Track 9

Filename D:\#cdr\#wav+flac\#New\The Trammps - Burn Baby Burn\cd 1\09. The Trammps - I Know That Feeling.wav

Pre-gap length 0:00:00.32

Peak level 93.2 %
Extraction speed 7.0 X
Track quality 100.0 %
Test CRC B95611AE
Copy CRC B95611AE
Accurately ripped (confidence 1) [6BB38CCF] (AR v2)
Copy OK

Track 10

Filename D:\#cdr\#wav+flac\#New\The Trammps - Burn Baby Burn\cd 1\10. The Trammps - Shout.wav

Pre-gap length 0:00:01.72

Peak level 85.7 %
Extraction speed 5.8 X
Track quality 99.9 %
Test CRC A80093A9
Copy CRC A80093A9
Accurately ripped (confidence 1) [14D8A6A3] (AR v2)
Copy OK


All tracks accurately ripped

No errors occurred

End of status report

–– CUETools DB Plugin V2.1.6

[CTDB TOCID: P0CqJ_DIzk5FPkJ8gi0cAoh4jGQ-] found
Submit result: P0CqJ_DIzk5FPkJ8gi0cAoh4jGQ- has been confirmed
Track | CTDB Status
1 | (2/2) Accurately ripped
2 | (2/2) Accurately ripped
3 | (2/2) Accurately ripped
4 | (2/2) Accurately ripped
5 | (2/2) Accurately ripped
6 | (2/2) Accurately ripped
7 | (2/2) Accurately ripped
8 | (2/2) Accurately ripped
9 | (2/2) Accurately ripped
10 | (2/2) Accurately ripped


==== Log checksum 6EB0805E6237BA2B64044D0D24ACB8152E3315DE42422B6E6757E9FC803BBE25 ====

––––––––––––––––––––––––––––––

Exact Audio Copy V1.3 from 2. September 2016

EAC extraction logfile from 23. May 2022, 20:12

The Trammps / Trammps

Used drive : HL-DT-STBD-RE BH16NS55 Adapter: 1 ID: 0

Read mode : Secure
Utilize accurate stream : Yes
Defeat audio cache : Yes
Make use of C2 pointers : No

Read offset correction : 6
Overread into Lead-In and Lead-Out : No
Fill up missing offset samples with silence : Yes
Delete leading and trailing silent blocks : No
Null samples used in CRC calculations : Yes
Used interface : Native Win32 interface for Win NT & 2000
Gap handling : Appended to previous track

Used output format : User Defined Encoder
Selected bitrate : 1024 kBit/s
Quality : High
Add ID3 tag : No
Command line compressor : C:\Program Files (x86)\Exact Audio Copy\Flac\flac.exe
Additional command line options : -8 -V -T "ARTIST=%artist%" -T "TITLE=%title%" -T "ALBUM=%albumtitle%" -T "DATE=%year%" -T "TRACKNUMBER=%tracknr%" -T "GENRE=%genre%" -T "PERFORMER=%albuminterpret%" -T "COMPOSER=%composer%" %haslyrics%–tag-from-file=LYRICS="%lyricsfile%"%haslyrics% -T "ALBUMARTIST=%albumartist%" -T "DISCNUMBER=%cdnumber%" -T "TOTALDISCS=%totalcds%" -T "TOTALTRACKS=%numtracks%" -T "COMMENT=%comment%" %source% -o %dest%


TOC of the extracted CD

Track | Start | Length | Start sector | End sector
––––––––––––––––––––––––––––-
1 | 0:00.00 | 3:11.45 | 0 | 14369
2 | 3:11.45 | 3:19.58 | 14370 | 29352
3 | 6:31.28 | 4:00.09 | 29353 | 47361
4 | 10:31.37 | 4:52.41 | 47362 | 69302
5 | 15:24.03 | 5:02.29 | 69303 | 91981
6 | 20:26.32 | 3:23.50 | 91982 | 107256
7 | 23:50.07 | 4:22.40 | 107257 | 126946
8 | 28:12.47 | 5:01.68 | 126947 | 149589
9 | 33:14.40 | 3:11.56 | 149590 | 163970
10 | 36:26.21 | 3:30.11 | 163971 | 179731


Track 1

Filename D:\#cdr\#wav+flac\#New\The Trammps - Burn Baby Burn\cd 1\01. The Trammps - Stop And Think.wav

Pre-gap length 0:00:02.00

Peak level 94.3 %
Extraction speed 4.1 X
Track quality 100.0 %
Test CRC ED704F25
Copy CRC ED704F25
Accurately ripped (confidence 1) [68069CEF] (AR v2)
Copy OK

Track 2

Filename D:\#cdr\#wav+flac\#New\The Trammps - Burn Baby Burn\cd 1\02. The Trammps - Trusting Heart.wav

Pre-gap length 0:00:01.98

Peak level 76.7 %
Extraction speed 4.6 X
Track quality 100.0 %
Test CRC 2110F4EC
Copy CRC 2110F4EC
Accurately ripped (confidence 1) [30A5260E] (AR v2)
Copy OK

Track 3

Filename D:\#cdr\#wav+flac\#New\The Trammps - Burn Baby Burn\cd 1\03. The Trammps - Every Dream I Dream Is You.wav

Pre-gap length 0:00:02.50

Peak level 76.6 %
Extraction speed 5.1 X
Track quality 100.0 %
Test CRC A3DD21C5
Copy CRC A3DD21C5
Accurately ripped (confidence 1) [2991B18C] (AR v2)
Copy OK

Track 4

Filename D:\#cdr\#wav+flac\#New\The Trammps - Burn Baby Burn\cd 1\04. The Trammps - Love Epidemic.wav

Pre-gap length 0:00:01.60

Peak level 82.2 %
Extraction speed 5.6 X
Track quality 100.0 %
Test CRC CBD51D36
Copy CRC CBD51D36
Accurately ripped (confidence 1) [3171B15E] (AR v2)
Copy OK

Track 5

Filename D:\#cdr\#wav+flac\#New\The Trammps - Burn Baby Burn\cd 1\05. The Trammps - Save A Place.wav

Pre-gap length 0:00:01.25

Peak level 94.2 %
Extraction speed 6.2 X
Track quality 100.0 %
Test CRC 63804B53
Copy CRC 63804B53
Accurately ripped (confidence 1) [194C1B44] (AR v2)
Copy OK

Track 6

Filename D:\#cdr\#wav+flac\#New\The Trammps - Burn Baby Burn\cd 1\06. The Trammps - Trammps Disco Theme.wav

Pre-gap length 0:00:02.33

Peak level 84.0 %
Extraction speed 6.2 X
Track quality 100.0 %
Test CRC 49B8FC9E
Copy CRC 49B8FC9E
Accurately ripped (confidence 1) [23DA13CC] (AR v2)
Copy OK

Track 7

Filename D:\#cdr\#wav+flac\#New\The Trammps - Burn Baby Burn\cd 1\07. The Trammps - Where Do We Go From Here.wav

Pre-gap length 0:00:00.54

Peak level 60.3 %
Extraction speed 6.7 X
Track quality 100.0 %
Test CRC 0623E410
Copy CRC 0623E410
Accurately ripped (confidence 1) [2731D4D1] (AR v2)
Copy OK

Track 8

Filename D:\#cdr\#wav+flac\#New\The Trammps - Burn Baby Burn\cd 1\08. The Trammps - Down Three Dark Streets.wav

Pre-gap length 0:00:01.21

Peak level 94.3 %
Extraction speed 7.2 X
Track quality 100.0 %
Test CRC 427F82B9
Copy CRC 427F82B9
Accurately ripped (confidence 1) [3097D539] (AR v2)
Copy OK

Track 9

Filename D:\#cdr\#wav+flac\#New\The Trammps - Burn Baby Burn\cd 1\09. The Trammps - I Know That Feeling.wav

Pre-gap length 0:00:00.32

Peak level 93.2 %
Extraction speed 7.0 X
Track quality 100.0 %
Test CRC B95611AE
Copy CRC B95611AE
Accurately ripped (confidence 1) [6BB38CCF] (AR v2)
Copy OK

Track 10

Filename D:\#cdr\#wav+flac\#New\The Trammps - Burn Baby Burn\cd 1\10. The Trammps - Shout.wav

Pre-gap length 0:00:01.72

Peak level 85.7 %
Extraction speed 5.8 X
Track quality 99.9 %
Test CRC A80093A9
Copy CRC A80093A9
Accurately ripped (confidence 1) [14D8A6A3] (AR v2)
Copy OK


All tracks accurately ripped

No errors occurred

End of status report

–– CUETools DB Plugin V2.1.6

[CTDB TOCID: P0CqJ_DIzk5FPkJ8gi0cAoh4jGQ-] found
Submit result: P0CqJ_DIzk5FPkJ8gi0cAoh4jGQ- has been confirmed
Track | CTDB Status
1 | (2/2) Accurately ripped
2 | (2/2) Accurately ripped
3 | (2/2) Accurately ripped
4 | (2/2) Accurately ripped
5 | (2/2) Accurately ripped
6 | (2/2) Accurately ripped
7 | (2/2) Accurately ripped
8 | (2/2) Accurately ripped
9 | (2/2) Accurately ripped
10 | (2/2) Accurately ripped


==== Log checksum 6EB0805E6237BA2B64044D0D24ACB8152E3315DE42422B6E6757E9FC803BBE25 ====


Exact Audio Copy V1.3 from 2. September 2016

EAC extraction logfile from 23. May 2022, 20:50

The Trammps / Where The Happy People Go

Used drive : HL-DT-STBD-RE BH16NS55 Adapter: 1 ID: 0

Read mode : Secure
Utilize accurate stream : Yes
Defeat audio cache : Yes
Make use of C2 pointers : No

Read offset correction : 6
Overread into Lead-In and Lead-Out : No
Fill up missing offset samples with silence : Yes
Delete leading and trailing silent blocks : No
Null samples used in CRC calculations : Yes
Used interface : Native Win32 interface for Win NT & 2000
Gap handling : Appended to previous track

Used output format : User Defined Encoder
Selected bitrate : 1024 kBit/s
Quality : High
Add ID3 tag : No
Command line compressor : C:\Program Files (x86)\Exact Audio Copy\Flac\flac.exe
Additional command line options : -8 -V -T "ARTIST=%artist%" -T "TITLE=%title%" -T "ALBUM=%albumtitle%" -T "DATE=%year%" -T "TRACKNUMBER=%tracknr%" -T "GENRE=%genre%" -T "PERFORMER=%albuminterpret%" -T "COMPOSER=%composer%" %haslyrics%–tag-from-file=LYRICS="%lyricsfile%"%haslyrics% -T "ALBUMARTIST=%albumartist%" -T "DISCNUMBER=%cdnumber%" -T "TOTALDISCS=%totalcds%" -T "TOTALTRACKS=%numtracks%" -T "COMMENT=%comment%" %source% -o %dest%


TOC of the extracted CD

Track | Start | Length | Start sector | End sector
––––––––––––––––––––––––––––-
1 | 0:00.00 | 6:05.43 | 0 | 27417
2 | 6:05.43 | 7:52.53 | 27418 | 62870
3 | 13:58.21 | 5:36.07 | 62871 | 88077
4 | 19:34.28 | 8:09.68 | 88078 | 124820
5 | 27:44.21 | 5:09.16 | 124821 | 148011
6 | 32:53.37 | 4:46.69 | 148012 | 169530
7 | 37:40.31 | 3:18.73 | 169531 | 184453
8 | 40:59.29 | 3:03.33 | 184454 | 198211
9 | 44:02.62 | 3:18.71 | 198212 | 213132
10 | 47:21.58 | 3:37.15 | 213133 | 229422
11 | 50:58.73 | 2:59.72 | 229423 | 242919


Track 1

Filename D:\#cdr\#wav+flac\#New\The Trammps - Burn Baby Burn\cd 3\01. The Trammps - Where The Happy People Go.wav

Pre-gap length 0:00:02.00

Peak level 94.3 %
Extraction speed 4.6 X
Track quality 100.0 %
Test CRC EAEA8238
Copy CRC EAEA8238
Accurately ripped (confidence 1) [260F56B4] (AR v2)
Copy OK

Track 2

Filename D:\#cdr\#wav+flac\#New\The Trammps - Burn Baby Burn\cd 3\02. The Trammps - Soul Searchin' Time.wav

Pre-gap length 0:00:02.00

Peak level 87.8 %
Extraction speed 5.6 X
Track quality 100.0 %
Test CRC 13FCEF9B
Copy CRC 13FCEF9B
Accurately ripped (confidence 1) [22DFF54F] (AR v2)
Copy OK

Track 3

Filename D:\#cdr\#wav+flac\#New\The Trammps - Burn Baby Burn\cd 3\03. The Trammps - That's Where The Happy People Go.wav

Pre-gap length 0:00:02.10

Peak level 67.9 %
Extraction speed 6.1 X
Track quality 100.0 %
Test CRC A7ACBA1A
Copy CRC A7ACBA1A
Accurately ripped (confidence 1) [32EFAB01] (AR v2)
Copy OK

Track 4

Filename D:\#cdr\#wav+flac\#New\The Trammps - Burn Baby Burn\cd 3\04. The Trammps - Can We Come Together.wav

Pre-gap length 0:00:01.86

Peak level 67.2 %
Extraction speed 6.9 X
Track quality 100.0 %
Test CRC A34148FC
Copy CRC A34148FC
Accurately ripped (confidence 1) [90B27747] (AR v2)
Copy OK

Track 5

Filename D:\#cdr\#wav+flac\#New\The Trammps - Burn Baby Burn\cd 3\05. The Trammps - Disco Party.wav

Pre-gap length 0:00:00.57

Peak level 94.3 %
Extraction speed 7.1 X
Track quality 100.0 %
Test CRC 71E74DB7
Copy CRC 71E74DB7
Accurately ripped (confidence 1) [E1C6DD6B] (AR v2)
Copy OK

Track 6

Filename D:\#cdr\#wav+flac\#New\The Trammps - Burn Baby Burn\cd 3\06. The Trammps - Ninety-Nine And A Half.wav

Pre-gap length 0:00:00.93

Peak level 94.3 %
Extraction speed 7.4 X
Track quality 100.0 %
Test CRC 8F0E24CE
Copy CRC 8F0E24CE
Accurately ripped (confidence 1) [6989B7FF] (AR v2)
Copy OK

Track 7

Filename D:\#cdr\#wav+flac\#New\The Trammps - Burn Baby Burn\cd 3\07. The Trammps - Hooked For Life.wav

Pre-gap length 0:00:01.52

Peak level 94.3 %
Extraction speed 7.3 X
Track quality 100.0 %
Test CRC F93BB3B0
Copy CRC F93BB3B0
Accurately ripped (confidence 1) [4C8A170C] (AR v2)
Copy OK

Track 8

Filename D:\#cdr\#wav+flac\#New\The Trammps - Burn Baby Burn\cd 3\08. The Trammps - Love Is A Funky Thing.wav

Pre-gap length 0:00:01.89

Peak level 85.3 %
Extraction speed 7.4 X
Track quality 100.0 %
Test CRC 762D3524
Copy CRC 762D3524
Accurately ripped (confidence 1) [0349ABE1] (AR v2)
Copy OK

Track 9

Filename D:\#cdr\#wav+flac\#New\The Trammps - Burn Baby Burn\cd 3\09. The Trammps - Soul Searchin' Time (7'' Version).wav

Pre-gap length 0:00:01.10

Peak level 60.6 %
Extraction speed 7.8 X
Track quality 100.0 %
Test CRC 86C95F0A
Copy CRC 86C95F0A
Accurately ripped (confidence 1) [3896B515] (AR v2)
Copy OK

Track 10

Filename D:\#cdr\#wav+flac\#New\The Trammps - Burn Baby Burn\cd 3\10. The Trammps - That's Where The Happy People Go (Single Edit).wav

Pre-gap length 0:00:01.74

Peak level 71.2 %
Extraction speed 8.0 X
Track quality 100.0 %
Test CRC 51471DE5
Copy CRC 51471DE5
Accurately ripped (confidence 1) [A8B17006] (AR v2)
Copy OK

Track 11

Filename D:\#cdr\#wav+flac\#New\The Trammps - Burn Baby Burn\cd 3\11. The Trammps - Ninety-Nine And A Half (7'' Version).wav

Pre-gap length 0:00:01.13

Peak level 73.7 %
Extraction speed 6.2 X
Track quality 99.9 %
Test CRC 515BDEA3
Copy CRC 515BDEA3
Accurately ripped (confidence 1) [D9901CDA] (AR v2)
Copy OK


All tracks accurately ripped

No errors occurred

End of status report

–– CUETools DB Plugin V2.1.6

[CTDB TOCID: dzkNLFgIutx11silkODWPsN8fF8-] found
Submit result: dzkNLFgIutx11silkODWPsN8fF8- has been confirmed
Track | CTDB Status
1 | (2/2) Accurately ripped
2 | (2/2) Accurately ripped
3 | (2/2) Accurately ripped
4 | (2/2) Accurately ripped
5 | (2/2) Accurately ripped
6 | (2/2) Accurately ripped
7 | (2/2) Accurately ripped
8 | (2/2) Accurately ripped
9 | (2/2) Accurately ripped
10 | (2/2) Accurately ripped
11 | (2/2) Accurately ripped


==== Log checksum 5CB2FD70D52DEABABEB494BE35CEC28EC57F8B853A74CC0FEBB943C6488414FC ====

––––––––––––––––––––––––––––––

Exact Audio Copy V1.3 from 2. September 2016

EAC extraction logfile from 23. May 2022, 20:50

The Trammps / Where The Happy People Go

Used drive : HL-DT-STBD-RE BH16NS55 Adapter: 1 ID: 0

Read mode : Secure
Utilize accurate stream : Yes
Defeat audio cache : Yes
Make use of C2 pointers : No

Read offset correction : 6
Overread into Lead-In and Lead-Out : No
Fill up missing offset samples with silence : Yes
Delete leading and trailing silent blocks : No
Null samples used in CRC calculations : Yes
Used interface : Native Win32 interface for Win NT & 2000
Gap handling : Appended to previous track

Used output format : User Defined Encoder
Selected bitrate : 1024 kBit/s
Quality : High
Add ID3 tag : No
Command line compressor : C:\Program Files (x86)\Exact Audio Copy\Flac\flac.exe
Additional command line options : -8 -V -T "ARTIST=%artist%" -T "TITLE=%title%" -T "ALBUM=%albumtitle%" -T "DATE=%year%" -T "TRACKNUMBER=%tracknr%" -T "GENRE=%genre%" -T "PERFORMER=%albuminterpret%" -T "COMPOSER=%composer%" %haslyrics%–tag-from-file=LYRICS="%lyricsfile%"%haslyrics% -T "ALBUMARTIST=%albumartist%" -T "DISCNUMBER=%cdnumber%" -T "TOTALDISCS=%totalcds%" -T "TOTALTRACKS=%numtracks%" -T "COMMENT=%comment%" %source% -o %dest%


TOC of the extracted CD

Track | Start | Length | Start sector | End sector
––––––––––––––––––––––––––––-
1 | 0:00.00 | 6:05.43 | 0 | 27417
2 | 6:05.43 | 7:52.53 | 27418 | 62870
3 | 13:58.21 | 5:36.07 | 62871 | 88077
4 | 19:34.28 | 8:09.68 | 88078 | 124820
5 | 27:44.21 | 5:09.16 | 124821 | 148011
6 | 32:53.37 | 4:46.69 | 148012 | 169530
7 | 37:40.31 | 3:18.73 | 169531 | 184453
8 | 40:59.29 | 3:03.33 | 184454 | 198211
9 | 44:02.62 | 3:18.71 | 198212 | 213132
10 | 47:21.58 | 3:37.15 | 213133 | 229422
11 | 50:58.73 | 2:59.72 | 229423 | 242919


Track 1

Filename D:\#cdr\#wav+flac\#New\The Trammps - Burn Baby Burn\cd 3\01. The Trammps - Where The Happy People Go.wav

Pre-gap length 0:00:02.00

Peak level 94.3 %
Extraction speed 4.6 X
Track quality 100.0 %
Test CRC EAEA8238
Copy CRC EAEA8238
Accurately ripped (confidence 1) [260F56B4] (AR v2)
Copy OK

Track 2

Filename D:\#cdr\#wav+flac\#New\The Trammps - Burn Baby Burn\cd 3\02. The Trammps - Soul Searchin' Time.wav

Pre-gap length 0:00:02.00

Peak level 87.8 %
Extraction speed 5.6 X
Track quality 100.0 %
Test CRC 13FCEF9B
Copy CRC 13FCEF9B
Accurately ripped (confidence 1) [22DFF54F] (AR v2)
Copy OK

Track 3

Filename D:\#cdr\#wav+flac\#New\The Trammps - Burn Baby Burn\cd 3\03. The Trammps - That's Where The Happy People Go.wav

Pre-gap length 0:00:02.10

Peak level 67.9 %
Extraction speed 6.1 X
Track quality 100.0 %
Test CRC A7ACBA1A
Copy CRC A7ACBA1A
Accurately ripped (confidence 1) [32EFAB01] (AR v2)
Copy OK

Track 4

Filename D:\#cdr\#wav+flac\#New\The Trammps - Burn Baby Burn\cd 3\04. The Trammps - Can We Come Together.wav

Pre-gap length 0:00:01.86

Peak level 67.2 %
Extraction speed 6.9 X
Track quality 100.0 %
Test CRC A34148FC
Copy CRC A34148FC
Accurately ripped (confidence 1) [90B27747] (AR v2)
Copy OK

Track 5

Filename D:\#cdr\#wav+flac\#New\The Trammps - Burn Baby Burn\cd 3\05. The Trammps - Disco Party.wav

Pre-gap length 0:00:00.57

Peak level 94.3 %
Extraction speed 7.1 X
Track quality 100.0 %
Test CRC 71E74DB7
Copy CRC 71E74DB7
Accurately ripped (confidence 1) [E1C6DD6B] (AR v2)
Copy OK

Track 6

Filename D:\#cdr\#wav+flac\#New\The Trammps - Burn Baby Burn\cd 3\06. The Trammps - Ninety-Nine And A Half.wav

Pre-gap length 0:00:00.93

Peak level 94.3 %
Extraction speed 7.4 X
Track quality 100.0 %
Test CRC 8F0E24CE
Copy CRC 8F0E24CE
Accurately ripped (confidence 1) [6989B7FF] (AR v2)
Copy OK

Track 7

Filename D:\#cdr\#wav+flac\#New\The Trammps - Burn Baby Burn\cd 3\07. The Trammps - Hooked For Life.wav

Pre-gap length 0:00:01.52

Peak level 94.3 %
Extraction speed 7.3 X
Track quality 100.0 %
Test CRC F93BB3B0
Copy CRC F93BB3B0
Accurately ripped (confidence 1) [4C8A170C] (AR v2)
Copy OK

Track 8

Filename D:\#cdr\#wav+flac\#New\The Trammps - Burn Baby Burn\cd 3\08. The Trammps - Love Is A Funky Thing.wav

Pre-gap length 0:00:01.89

Peak level 85.3 %
Extraction speed 7.4 X
Track quality 100.0 %
Test CRC 762D3524
Copy CRC 762D3524
Accurately ripped (confidence 1) [0349ABE1] (AR v2)
Copy OK

Track 9

Filename D:\#cdr\#wav+flac\#New\The Trammps - Burn Baby Burn\cd 3\09. The Trammps - Soul Searchin' Time (7'' Version).wav

Pre-gap length 0:00:01.10

Peak level 60.6 %
Extraction speed 7.8 X
Track quality 100.0 %
Test CRC 86C95F0A
Copy CRC 86C95F0A
Accurately ripped (confidence 1) [3896B515] (AR v2)
Copy OK

Track 10

Filename D:\#cdr\#wav+flac\#New\The Trammps - Burn Baby Burn\cd 3\10. The Trammps - That's Where The Happy People Go (Single Edit).wav

Pre-gap length 0:00:01.74

Peak level 71.2 %
Extraction speed 8.0 X
Track quality 100.0 %
Test CRC 51471DE5
Copy CRC 51471DE5
Accurately ripped (confidence 1) [A8B17006] (AR v2)
Copy OK

Track 11

Filename D:\#cdr\#wav+flac\#New\The Trammps - Burn Baby Burn\cd 3\11. The Trammps - Ninety-Nine And A Half (7'' Version).wav

Pre-gap length 0:00:01.13

Peak level 73.7 %
Extraction speed 6.2 X
Track quality 99.9 %
Test CRC 515BDEA3
Copy CRC 515BDEA3
Accurately ripped (confidence 1) [D9901CDA] (AR v2)
Copy OK


All tracks accurately ripped

No errors occurred

End of status report

–– CUETools DB Plugin V2.1.6

[CTDB TOCID: dzkNLFgIutx11silkODWPsN8fF8-] found
Submit result: dzkNLFgIutx11silkODWPsN8fF8- has been confirmed
Track | CTDB Status
1 | (2/2) Accurately ripped
2 | (2/2) Accurately ripped
3 | (2/2) Accurately ripped
4 | (2/2) Accurately ripped
5 | (2/2) Accurately ripped
6 | (2/2) Accurately ripped
7 | (2/2) Accurately ripped
8 | (2/2) Accurately ripped
9 | (2/2) Accurately ripped
10 | (2/2) Accurately ripped
11 | (2/2) Accurately ripped


==== Log checksum 5CB2FD70D52DEABABEB494BE35CEC28EC57F8B853A74CC0FEBB943C6488414FC ====


Exact Audio Copy V1.3 from 2. September 2016

EAC extraction logfile from 23. May 2022, 21:33

The Trammps / III

Used drive : HL-DT-STBD-RE BH16NS55 Adapter: 1 ID: 0

Read mode : Secure
Utilize accurate stream : Yes
Defeat audio cache : Yes
Make use of C2 pointers : No

Read offset correction : 6
Overread into Lead-In and Lead-Out : No
Fill up missing offset samples with silence : Yes
Delete leading and trailing silent blocks : No
Null samples used in CRC calculations : Yes
Used interface : Native Win32 interface for Win NT & 2000
Gap handling : Appended to previous track

Used output format : User Defined Encoder
Selected bitrate : 1024 kBit/s
Quality : High
Add ID3 tag : No
Command line compressor : C:\Program Files (x86)\Exact Audio Copy\Flac\flac.exe
Additional command line options : -8 -V -T "ARTIST=%artist%" -T "TITLE=%title%" -T "ALBUM=%albumtitle%" -T "DATE=%year%" -T "TRACKNUMBER=%tracknr%" -T "GENRE=%genre%" -T "PERFORMER=%albuminterpret%" -T "COMPOSER=%composer%" %haslyrics%–tag-from-file=LYRICS="%lyricsfile%"%haslyrics% -T "ALBUMARTIST=%albumartist%" -T "DISCNUMBER=%cdnumber%" -T "TOTALDISCS=%totalcds%" -T "TOTALTRACKS=%numtracks%" -T "COMMENT=%comment%" %source% -o %dest%


TOC of the extracted CD

Track | Start | Length | Start sector | End sector
––––––––––––––––––––––––––––-
1 | 0:00.00 | 7:08.39 | 0 | 32138
2 | 7:08.39 | 5:13.00 | 32139 | 55613
3 | 12:21.39 | 9:27.52 | 55614 | 98190
4 | 21:49.16 | 4:03.06 | 98191 | 116421
5 | 25:52.22 | 7:59.23 | 116422 | 152369
6 | 33:51.45 | 3:15.44 | 152370 | 167038
7 | 37:07.14 | 2:58.15 | 167039 | 180403
8 | 40:05.29 | 3:21.52 | 180404 | 195530
9 | 43:27.06 | 3:26.53 | 195531 | 211033
10 | 46:53.59 | 3:45.56 | 211034 | 227964


Track 1

Filename D:\#cdr\#wav+flac\#New\The Trammps - Burn Baby Burn\cd 5\01. The Trammps - The Night The Lights Went Out.wav

Pre-gap length 0:00:02.00

Peak level 94.3 %
Extraction speed 4.8 X
Track quality 100.0 %
Test CRC D16EBDF6
Copy CRC D16EBDF6
Accurately ripped (confidence 1) [F9EC0E26] (AR v2)
Copy OK

Track 2

Filename D:\#cdr\#wav+flac\#New\The Trammps - Burn Baby Burn\cd 5\02. The Trammps - Love Per Hour.wav

Pre-gap length 0:00:02.04

Peak level 94.3 %
Extraction speed 5.3 X
Track quality 100.0 %
Test CRC 548E19A4
Copy CRC 548E19A4
Accurately ripped (confidence 1) [8ACEC862] (AR v2)
Copy OK

Track 3

Filename D:\#cdr\#wav+flac\#New\The Trammps - Burn Baby Burn\cd 5\03. The Trammps - People Of The World, Rise.wav

Pre-gap length 0:00:00.16

Peak level 94.3 %
Extraction speed 5.8 X
Track quality 99.9 %
Test CRC 01434D7F
Copy CRC 01434D7F
Accurately ripped (confidence 1) [020401B3] (AR v2)
Copy OK

Track 4

Filename D:\#cdr\#wav+flac\#New\The Trammps - Burn Baby Burn\cd 5\04. The Trammps - Living The Life.wav

Pre-gap length 0:00:01.32

Peak level 94.3 %
Extraction speed 6.4 X
Track quality 100.0 %
Test CRC 57ED50D1
Copy CRC 57ED50D1
Accurately ripped (confidence 1) [FF4ABA89] (AR v2)
Copy OK

Track 5

Filename D:\#cdr\#wav+flac\#New\The Trammps - Burn Baby Burn\cd 5\05. The Trammps - Seasons For Girls.wav

Pre-gap length 0:00:01.40

Peak level 94.3 %
Extraction speed 7.3 X
Track quality 100.0 %
Test CRC 1477377A
Copy CRC 1477377A
Accurately ripped (confidence 1) [F3567D40] (AR v2)
Copy OK

Track 6

Filename D:\#cdr\#wav+flac\#New\The Trammps - Burn Baby Burn\cd 5\06. The Trammps - Life Ain't Been Easy.wav

Pre-gap length 0:00:01.77

Peak level 94.3 %
Extraction speed 7.0 X
Track quality 100.0 %
Test CRC B138576A
Copy CRC B138576A
Accurately ripped (confidence 1) [DA0D0BFB] (AR v2)
Copy OK

Track 7

Filename D:\#cdr\#wav+flac\#New\The Trammps - Burn Baby Burn\cd 5\07. The Trammps - I'm So Glad You Came Along.wav

Pre-gap length 0:00:00.93

Peak level 94.3 %
Extraction speed 7.3 X
Track quality 100.0 %
Test CRC 8410E3E2
Copy CRC 8410E3E2
Accurately ripped (confidence 1) [4941C28E] (AR v2)
Copy OK

Track 8

Filename D:\#cdr\#wav+flac\#New\The Trammps - Burn Baby Burn\cd 5\08. The Trammps - It Don't Take Much.wav

Pre-gap length 0:00:02.56

Peak level 94.3 %
Extraction speed 7.5 X
Track quality 100.0 %
Test CRC 8811E0E2
Copy CRC 8811E0E2
Accurately ripped (confidence 1) [68172DA1] (AR v2)
Copy OK

Track 9

Filename D:\#cdr\#wav+flac\#New\The Trammps - Burn Baby Burn\cd 5\09. The Trammps - The Night The Lights Went Out [Single Version].wav

Pre-gap length 0:00:01.89

Peak level 94.3 %
Extraction speed 7.7 X
Track quality 100.0 %
Test CRC 2290B71C
Copy CRC 2290B71C
Accurately ripped (confidence 1) [064F2B1B] (AR v2)
Copy OK

Track 10

Filename D:\#cdr\#wav+flac\#New\The Trammps - Burn Baby Burn\cd 5\10. The Trammps - Seasons For Girls [Single Version].wav

Pre-gap length 0:00:01.16

Peak level 88.4 %
Extraction speed 6.5 X
Track quality 99.9 %
Test CRC DFD153C9
Copy CRC DFD153C9
Accurately ripped (confidence 1) [EAD1ED54] (AR v2)
Copy OK


All tracks accurately ripped

No errors occurred

End of status report

–– CUETools DB Plugin V2.1.6

[CTDB TOCID: X8zcriLt.NLBm5DBn2F0UfI3RCw-] found
Submit result: X8zcriLt.NLBm5DBn2F0UfI3RCw- has been confirmed
Track | CTDB Status
1 | (2/2) Accurately ripped
2 | (2/2) Accurately ripped
3 | (2/2) Accurately ripped
4 | (2/2) Accurately ripped
5 | (2/2) Accurately ripped
6 | (2/2) Accurately ripped
7 | (2/2) Accurately ripped
8 | (2/2) Accurately ripped
9 | (2/2) Accurately ripped
10 | (2/2) Accurately ripped


==== Log checksum CC1F63EFE979B3106535EC35F5A8542A30EF64C278C1B2A245596E8A6748ED3F ====

––––––––––––––––––––––––––––––

Exact Audio Copy V1.3 from 2. September 2016

EAC extraction logfile from 23. May 2022, 21:33

The Trammps / III

Used drive : HL-DT-STBD-RE BH16NS55 Adapter: 1 ID: 0

Read mode : Secure
Utilize accurate stream : Yes
Defeat audio cache : Yes
Make use of C2 pointers : No

Read offset correction : 6
Overread into Lead-In and Lead-Out : No
Fill up missing offset samples with silence : Yes
Delete leading and trailing silent blocks : No
Null samples used in CRC calculations : Yes
Used interface : Native Win32 interface for Win NT & 2000
Gap handling : Appended to previous track

Used output format : User Defined Encoder
Selected bitrate : 1024 kBit/s
Quality : High
Add ID3 tag : No
Command line compressor : C:\Program Files (x86)\Exact Audio Copy\Flac\flac.exe
Additional command line options : -8 -V -T "ARTIST=%artist%" -T "TITLE=%title%" -T "ALBUM=%albumtitle%" -T "DATE=%year%" -T "TRACKNUMBER=%tracknr%" -T "GENRE=%genre%" -T "PERFORMER=%albuminterpret%" -T "COMPOSER=%composer%" %haslyrics%–tag-from-file=LYRICS="%lyricsfile%"%haslyrics% -T "ALBUMARTIST=%albumartist%" -T "DISCNUMBER=%cdnumber%" -T "TOTALDISCS=%totalcds%" -T "TOTALTRACKS=%numtracks%" -T "COMMENT=%comment%" %source% -o %dest%


TOC of the extracted CD

Track | Start | Length | Start sector | End sector
––––––––––––––––––––––––––––-
1 | 0:00.00 | 7:08.39 | 0 | 32138
2 | 7:08.39 | 5:13.00 | 32139 | 55613
3 | 12:21.39 | 9:27.52 | 55614 | 98190
4 | 21:49.16 | 4:03.06 | 98191 | 116421
5 | 25:52.22 | 7:59.23 | 116422 | 152369
6 | 33:51.45 | 3:15.44 | 152370 | 167038
7 | 37:07.14 | 2:58.15 | 167039 | 180403
8 | 40:05.29 | 3:21.52 | 180404 | 195530
9 | 43:27.06 | 3:26.53 | 195531 | 211033
10 | 46:53.59 | 3:45.56 | 211034 | 227964


Track 1

Filename D:\#cdr\#wav+flac\#New\The Trammps - Burn Baby Burn\cd 5\01. The Trammps - The Night The Lights Went Out.wav

Pre-gap length 0:00:02.00

Peak level 94.3 %
Extraction speed 4.8 X
Track quality 100.0 %
Test CRC D16EBDF6
Copy CRC D16EBDF6
Accurately ripped (confidence 1) [F9EC0E26] (AR v2)
Copy OK

Track 2

Filename D:\#cdr\#wav+flac\#New\The Trammps - Burn Baby Burn\cd 5\02. The Trammps - Love Per Hour.wav

Pre-gap length 0:00:02.04

Peak level 94.3 %
Extraction speed 5.3 X
Track quality 100.0 %
Test CRC 548E19A4
Copy CRC 548E19A4
Accurately ripped (confidence 1) [8ACEC862] (AR v2)
Copy OK

Track 3

Filename D:\#cdr\#wav+flac\#New\The Trammps - Burn Baby Burn\cd 5\03. The Trammps - People Of The World, Rise.wav

Pre-gap length 0:00:00.16

Peak level 94.3 %
Extraction speed 5.8 X
Track quality 99.9 %
Test CRC 01434D7F
Copy CRC 01434D7F
Accurately ripped (confidence 1) [020401B3] (AR v2)
Copy OK

Track 4

Filename D:\#cdr\#wav+flac\#New\The Trammps - Burn Baby Burn\cd 5\04. The Trammps - Living The Life.wav

Pre-gap length 0:00:01.32

Peak level 94.3 %
Extraction speed 6.4 X
Track quality 100.0 %
Test CRC 57ED50D1
Copy CRC 57ED50D1
Accurately ripped (confidence 1) [FF4ABA89] (AR v2)
Copy OK

Track 5

Filename D:\#cdr\#wav+flac\#New\The Trammps - Burn Baby Burn\cd 5\05. The Trammps - Seasons For Girls.wav

Pre-gap length 0:00:01.40

Peak level 94.3 %
Extraction speed 7.3 X
Track quality 100.0 %
Test CRC 1477377A
Copy CRC 1477377A
Accurately ripped (confidence 1) [F3567D40] (AR v2)
Copy OK

Track 6

Filename D:\#cdr\#wav+flac\#New\The Trammps - Burn Baby Burn\cd 5\06. The Trammps - Life Ain't Been Easy.wav

Pre-gap length 0:00:01.77

Peak level 94.3 %
Extraction speed 7.0 X
Track quality 100.0 %
Test CRC B138576A
Copy CRC B138576A
Accurately ripped (confidence 1) [DA0D0BFB] (AR v2)
Copy OK

Track 7

Filename D:\#cdr\#wav+flac\#New\The Trammps - Burn Baby Burn\cd 5\07. The Trammps - I'm So Glad You Came Along.wav

Pre-gap length 0:00:00.93

Peak level 94.3 %
Extraction speed 7.3 X
Track quality 100.0 %
Test CRC 8410E3E2
Copy CRC 8410E3E2
Accurately ripped (confidence 1) [4941C28E] (AR v2)
Copy OK

Track 8

Filename D:\#cdr\#wav+flac\#New\The Trammps - Burn Baby Burn\cd 5\08. The Trammps - It Don't Take Much.wav

Pre-gap length 0:00:02.56

Peak level 94.3 %
Extraction speed 7.5 X
Track quality 100.0 %
Test CRC 8811E0E2
Copy CRC 8811E0E2
Accurately ripped (confidence 1) [68172DA1] (AR v2)
Copy OK

Track 9

Filename D:\#cdr\#wav+flac\#New\The Trammps - Burn Baby Burn\cd 5\09. The Trammps - The Night The Lights Went Out [Single Version].wav

Pre-gap length 0:00:01.89

Peak level 94.3 %
Extraction speed 7.7 X
Track quality 100.0 %
Test CRC 2290B71C
Copy CRC 2290B71C
Accurately ripped (confidence 1) [064F2B1B] (AR v2)
Copy OK

Track 10

Filename D:\#cdr\#wav+flac\#New\The Trammps - Burn Baby Burn\cd 5\10. The Trammps - Seasons For Girls [Single Version].wav

Pre-gap length 0:00:01.16

Peak level 88.4 %
Extraction speed 6.5 X
Track quality 99.9 %
Test CRC DFD153C9
Copy CRC DFD153C9
Accurately ripped (confidence 1) [EAD1ED54] (AR v2)
Copy OK


All tracks accurately ripped

No errors occurred

End of status report

–– CUETools DB Plugin V2.1.6

[CTDB TOCID: X8zcriLt.NLBm5DBn2F0UfI3RCw-] found
Submit result: X8zcriLt.NLBm5DBn2F0UfI3RCw- has been confirmed
Track | CTDB Status
1 | (2/2) Accurately ripped
2 | (2/2) Accurately ripped
3 | (2/2) Accurately ripped
4 | (2/2) Accurately ripped
5 | (2/2) Accurately ripped
6 | (2/2) Accurately ripped
7 | (2/2) Accurately ripped
8 | (2/2) Accurately ripped
9 | (2/2) Accurately ripped
10 | (2/2) Accurately ripped


==== Log checksum CC1F63EFE979B3106535EC35F5A8542A30EF64C278C1B2A245596E8A6748ED3F ====