Tags
Language
Tags
June 2024
Su Mo Tu We Th Fr Sa
26 27 28 29 30 31 1
2 3 4 5 6 7 8
9 10 11 12 13 14 15
16 17 18 19 20 21 22
23 24 25 26 27 28 29
30 1 2 3 4 5 6

VA - Easy Rider - Music From The Soundtrack (Deluxe Edition) (1969/2004)

Posted By: Rtax
9348949
VA - Easy Rider - Music From The Soundtrack (Deluxe Edition) (1969/2004)
EAC Rip | FLAC (tracks, cue, log) - 639 MB | MP3 CBR 320 kbps - 242 MB
1:45:07 | Classic Rock, Psychedelic Rock, Folk Rock, Soundtrack | Label: Hip-O Records

This Harley hog of a reissue takes the original soundtrack and adds an entire disc of similarly emblematic anthems of the era to form the ultimate period piece! Includes Don't Bogart Me Fraternity of Man; The Ballad of Easy Rider Roger McGuinn; Pushin' Too Hard Seeds; If You Want to Be a Bird Holy Modal Rounders; Time Has Come Today Chambers Brothers; If 6 Were 9 Jimi Hendrix, and more.

After 1968's political assassinations and street riots, the once vaunted idealism the 60's went south for good in 1969. The artistic metaphors for the unraveling of The Age of Aquarius encompassed variously Gimme Shelter, the documentary of The Stones' disastrous Altamont free concert, and Dennis Hopper's idealism-gone-sour road picture, Easy Rider. It's rock score was an instant counter-culture classic, a collection anchored by Steppenwolf's road anthem chestnut "Born to Be Wild" and its cautionary "The Pusher," a song that underscored the film's frank portrayal of drug use (one that's given a more lighthearted hearing on Fraternity of Man's "Don't Bogart Me"). Other standouts include the Holy Modal Rounders' loopy "If You Want To Be A Bird" and Byrds' leader Roger McGuinn's "Ballad of Easy Rider" and faithful cover of Dylan's "It's Alright , Ma (I'm Only Bleeding)." Licensing concerns kept the soundtrack from compact disc until 2000, but this deluxe, slip-cased double-disc set not only expands on that edition's shortcoming (returning The Band's version of "The Weight" to its rightful place), but adds an additional 18 emblematic tracks "inspired" by the film and its turbulent times. While some of these are either a bit too obvious (The Seeds' "Pushin' Too Hard") or themeatically inappropriate (The Who's "I Can See For Miles"), gems like Thunderclap Newman's haunting "Something In the Air" make it more inviting. –Jerry McCulley

Tracklist
CD 1 - The Original Soundtrack Album
1. Steppenwolf – The Pusher (05:48)
2. Steppenwolf – Born To Be Wild (03:29)
3. Smith – The Weight (04:29)
4. The Byrds – Wasn't Born To Follow (02:03)
5. The Holy Modal Rounders – If You Want To Be A Bird (02:35)
6. The Fraternity Of Man – Don't Bogart Me (03:02)
7. The Jimi Hendrix Experience – If Six Was Nine (05:32)
8. The Electric Prunes – Kyrie Eleison (04:02)
9. Roger McGuinn – It's Alright Ma (I'm Only Bleeding) (03:03)
10. Roger McGuinn – Ballad Of Easy Rider (02:13)

CD2 - Something In The Air, 1967 To 1969
1967
1 –The Seeds - Pushin' Too Hard 2:36
2 –Electric Prunes - I Had Too Much To Dream Last Night 2:59
3 –Blues Magoos - We Ain't Got Nothin' Yet 2:17
4 –Eric Burdon & The Animals - San Franciscan Nights 3:22
5 –Jefferson Airplane - White Rabbit 2:31
6 –The Who - I Can See For Miles 4:07
7 –Procol Harum - A Whiter Shade Of Pale 4:04
8 –The Young Rascals - Groovin' 2:28
9 –Richie Havens - High Flyin' Bird 3:36
1968
10 –The Band - The Weight 4:34
11 –The Byrds - You Ain't Going Nowhere 2:35
12 –The Chambers Brothers - The Time Has Come Today 4:57
13 –Joe Cocker - With A Little Help From My Friends 5:12
14 –Blue Cheer - Summertime Blues 3:47
15 –The Moody Blues - Nights In White Satin 4:26
1969
16 –Sir Douglas Quintet - Mendocino 2:44
17 –The Youngbloods - Get Together 4:37
18 –The Flying Burrito Brothers - My Uncle 2:37
19 –Thunderclap Newman - Something In The Air 3:55
Exact Audio Copy V1.3 from 2. September 2016

EAC extraction logfile from 8. December 2018, 16:11

Various / Easy Rider (Music From The Soundtrack) [2004 Deluxe Ed]

Used drive : SONY DVD RW AD-7280S Adapter: 1 ID: 1

Read mode : Secure
Utilize accurate stream : Yes
Defeat audio cache : Yes
Make use of C2 pointers : No

Read offset correction : 48
Overread into Lead-In and Lead-Out : No
Fill up missing offset samples with silence : Yes
Delete leading and trailing silent blocks : No
Null samples used in CRC calculations : Yes
Used interface : Native Win32 interface for Win NT & 2000
Gap handling : Appended to previous track

Used output format : User Defined Encoder
Selected bitrate : 768 kBit/s
Quality : High
Add ID3 tag : No
Command line compressor : C:\Program Files (x86)\Exact Audio Copy\FLAC\FLAC.EXE
Additional command line options : -8 -e -p -V -T "ARTIST=%artist%" -T "TITLE=%title%" -T "ALBUM=%albumtitle%" -T "DATE=%year%" -T "TRACKNUMBER=%tracknr%" -T "GENRE=%genre%" -T "PERFORMER=%albuminterpret%" -T "COMPOSER=%composer%" %haslyrics%–tag-from-file=LYRICS="%lyricsfile%"%haslyrics% -T "ALBUMARTIST=%albumartist%" -T "DISCNUMBER=%cdnumber%" -T "TOTALDISCS=%totalcds%" -T "TOTALTRACKS=%numtracks%" -T "COMMENT=%comment%" %source% -o %dest%


TOC of the extracted CD

Track | Start | Length | Start sector | End sector
––––––––––––––––––––––––––––-
1 | 0:00.00 | 5:51.44 | 0 | 26368
2 | 5:51.44 | 3:39.23 | 26369 | 42816
3 | 9:30.67 | 4:36.12 | 42817 | 63528
4 | 14:07.04 | 2:05.27 | 63529 | 72930
5 | 16:12.31 | 2:40.67 | 72931 | 84997
6 | 18:53.23 | 3:08.41 | 84998 | 99138
7 | 22:01.64 | 5:35.30 | 99139 | 124293
8 | 27:37.19 | 4:01.40 | 124294 | 142408
9 | 31:38.59 | 3:41.10 | 142409 | 158993
10 | 35:19.69 | 2:14.68 | 158994 | 169111


Track 1

Filename G:\__New\_EAC rips\VA - Easy Rider (Music From The Soundtrack) [2004 Dlx Ed] (1969) 2cd\CD1\01 - Steppenwolf - The Pusher.wav

Pre-gap length 0:00:02.00

Peak level 98.8 %
Extraction speed 2.3 X
Track quality 99.9 %
Test CRC 1A4B9737
Copy CRC 1A4B9737
Accurately ripped (confidence 6) [24396554] (AR v2)
Copy OK

Track 2

Filename G:\__New\_EAC rips\VA - Easy Rider (Music From The Soundtrack) [2004 Dlx Ed] (1969) 2cd\CD1\02 - Steppenwolf - Born to Be Wild.wav

Peak level 98.8 %
Extraction speed 2.7 X
Track quality 100.0 %
Test CRC 79749420
Copy CRC 79749420
Accurately ripped (confidence 6) [922CBC60] (AR v2)
Copy OK

Track 3

Filename G:\__New\_EAC rips\VA - Easy Rider (Music From The Soundtrack) [2004 Dlx Ed] (1969) 2cd\CD1\03 - Smith - The Weight.wav

Pre-gap length 0:00:02.72

Peak level 98.8 %
Extraction speed 3.0 X
Track quality 100.0 %
Test CRC 2BF38082
Copy CRC 2BF38082
Accurately ripped (confidence 6) [82B814D6] (AR v2)
Copy OK

Track 4

Filename G:\__New\_EAC rips\VA - Easy Rider (Music From The Soundtrack) [2004 Dlx Ed] (1969) 2cd\CD1\04 - The Byrds - Wasn't Born to Follow.wav

Peak level 98.8 %
Extraction speed 2.8 X
Track quality 100.0 %
Test CRC 85529B4E
Copy CRC 85529B4E
Accurately ripped (confidence 6) [5D0F4695] (AR v2)
Copy OK

Track 5

Filename G:\__New\_EAC rips\VA - Easy Rider (Music From The Soundtrack) [2004 Dlx Ed] (1969) 2cd\CD1\05 - The Holy Modal Rounders - If You Want to Be a Bird.wav

Pre-gap length 0:00:02.40

Peak level 98.0 %
Extraction speed 3.0 X
Track quality 100.0 %
Test CRC 2410143F
Copy CRC 2410143F
Accurately ripped (confidence 6) [51BBC62A] (AR v2)
Copy OK

Track 6

Filename G:\__New\_EAC rips\VA - Easy Rider (Music From The Soundtrack) [2004 Dlx Ed] (1969) 2cd\CD1\06 - Fraternity of Man - Don't Bogart Me.wav

Pre-gap length 0:00:01.14

Peak level 98.8 %
Extraction speed 2.8 X
Track quality 99.9 %
Test CRC C30D6B72
Copy CRC C30D6B72
Accurately ripped (confidence 6) [8EAE0C4B] (AR v2)
Copy OK

Track 7

Filename G:\__New\_EAC rips\VA - Easy Rider (Music From The Soundtrack) [2004 Dlx Ed] (1969) 2cd\CD1\07 - The Jimi Hendrix Experience - If 6 Was 9.wav

Pre-gap length 0:00:01.72

Peak level 98.8 %
Extraction speed 3.8 X
Track quality 100.0 %
Test CRC C0189AE7
Copy CRC C0189AE7
Accurately ripped (confidence 6) [B2DC3557] (AR v2)
Copy OK

Track 8

Filename G:\__New\_EAC rips\VA - Easy Rider (Music From The Soundtrack) [2004 Dlx Ed] (1969) 2cd\CD1\08 - The Electric Prunes - Kyrie Eleison,Mardi Gras.wav

Pre-gap length 0:00:02.72

Peak level 98.8 %
Extraction speed 3.8 X
Track quality 100.0 %
Test CRC E3D7504C
Copy CRC E3D7504C
Accurately ripped (confidence 6) [21ABAB3B] (AR v2)
Copy OK

Track 9

Filename G:\__New\_EAC rips\VA - Easy Rider (Music From The Soundtrack) [2004 Dlx Ed] (1969) 2cd\CD1\09 - Roger McGuinn - It's Alright Ma (I'm Only Bleeding).wav

Peak level 98.8 %
Extraction speed 3.9 X
Track quality 100.0 %
Test CRC 7260F76C
Copy CRC 7260F76C
Accurately ripped (confidence 6) [E1558C20] (AR v2)
Copy OK

Track 10

Filename G:\__New\_EAC rips\VA - Easy Rider (Music From The Soundtrack) [2004 Dlx Ed] (1969) 2cd\CD1\10 - Roger McGuinn - Ballad of Easy Rider.wav

Pre-gap length 0:00:36.38

Peak level 98.8 %
Extraction speed 3.7 X
Track quality 100.0 %
Test CRC 42825B04
Copy CRC 42825B04
Accurately ripped (confidence 6) [3F1E3390] (AR v2)
Copy OK


All tracks accurately ripped

No errors occurred

End of status report

–– CUETools DB Plugin V2.1.6

[CTDB TOCID: .vvS0MSBpEk_8sZI2DA_RB0TD1g-] found
Submit result: .vvS0MSBpEk_8sZI2DA_RB0TD1g- has been confirmed
Track | CTDB Status
1 | (34/34) Accurately ripped
2 | (34/34) Accurately ripped
3 | (34/34) Accurately ripped
4 | (33/34) Accurately ripped
5 | (33/34) Accurately ripped
6 | (34/34) Accurately ripped
7 | (34/34) Accurately ripped
8 | (34/34) Accurately ripped
9 | (33/34) Accurately ripped
10 | (33/34) Accurately ripped


==== Log checksum 874186575222117D8C343DB55EDB0FBC370EA327536C97A56237F5C539757791 ====


Exact Audio Copy V1.3 from 2. September 2016

EAC extraction logfile from 8. December 2018, 17:35

Various / Easy Rider (Music From The Soundtrack) CD 2

Used drive : SONY DVD RW AD-7280S Adapter: 1 ID: 1

Read mode : Secure
Utilize accurate stream : Yes
Defeat audio cache : Yes
Make use of C2 pointers : No

Read offset correction : 48
Overread into Lead-In and Lead-Out : No
Fill up missing offset samples with silence : Yes
Delete leading and trailing silent blocks : No
Null samples used in CRC calculations : Yes
Used interface : Native Win32 interface for Win NT & 2000
Gap handling : Appended to previous track

Used output format : User Defined Encoder
Selected bitrate : 768 kBit/s
Quality : High
Add ID3 tag : No
Command line compressor : C:\Program Files (x86)\Exact Audio Copy\FLAC\FLAC.EXE
Additional command line options : -8 -e -p -V -T "ARTIST=%artist%" -T "TITLE=%title%" -T "ALBUM=%albumtitle%" -T "DATE=%year%" -T "TRACKNUMBER=%tracknr%" -T "GENRE=%genre%" -T "PERFORMER=%albuminterpret%" -T "COMPOSER=%composer%" %haslyrics%–tag-from-file=LYRICS="%lyricsfile%"%haslyrics% -T "ALBUMARTIST=%albumartist%" -T "DISCNUMBER=%cdnumber%" -T "TOTALDISCS=%totalcds%" -T "TOTALTRACKS=%numtracks%" -T "COMMENT=%comment%" %source% -o %dest%


TOC of the extracted CD

Track | Start | Length | Start sector | End sector
––––––––––––––––––––––––––––-
1 | 0:00.00 | 2:36.22 | 0 | 11721
2 | 2:36.22 | 2:59.38 | 11722 | 25184
3 | 5:35.60 | 2:17.15 | 25185 | 35474
4 | 7:53.00 | 3:22.45 | 35475 | 50669
5 | 11:15.45 | 2:31.42 | 50670 | 62036
6 | 13:47.12 | 4:07.30 | 62037 | 80591
7 | 17:54.42 | 4:04.53 | 80592 | 98944
8 | 21:59.20 | 2:28.70 | 98945 | 110114
9 | 24:28.15 | 3:36.52 | 110115 | 126366
10 | 28:04.67 | 4:34.50 | 126367 | 146966
11 | 32:39.42 | 2:35.15 | 146967 | 158606
12 | 35:14.57 | 4:57.30 | 158607 | 180911
13 | 40:12.12 | 5:12.25 | 180912 | 204336
14 | 45:24.37 | 3:47.30 | 204337 | 221391
15 | 49:11.67 | 4:26.15 | 221392 | 241356
16 | 53:38.07 | 2:44.10 | 241357 | 253666
17 | 56:22.17 | 4:37.40 | 253667 | 274481
18 | 60:59.57 | 2:37.23 | 274482 | 286279
19 | 63:37.05 | 3:55.02 | 286280 | 303906


Track 1

Filename G:\__New\_EAC rips\VA - Easy Rider (Music From The Soundtrack) [2004 Dlx Ed] (1969) 2cd\CD2\01 - The Seeds - Pushin Too Hard.wav

Pre-gap length 0:00:02.00

Peak level 98.8 %
Extraction speed 4.4 X
Track quality 100.0 %
Test CRC A407345C
Copy CRC A407345C
Accurately ripped (confidence 12) [948ABF9C] (AR v2)
Copy OK

Track 2

Filename G:\__New\_EAC rips\VA - Easy Rider (Music From The Soundtrack) [2004 Dlx Ed] (1969) 2cd\CD2\02 - Electric Prunes - I Had Too Much to Dream Last Night.wav

Pre-gap length 0:00:01.06

Peak level 98.8 %
Extraction speed 4.9 X
Track quality 100.0 %
Test CRC 0AA181DA
Copy CRC 0AA181DA
Accurately ripped (confidence 12) [E6DAF8D8] (AR v2)
Copy OK

Track 3

Filename G:\__New\_EAC rips\VA - Easy Rider (Music From The Soundtrack) [2004 Dlx Ed] (1969) 2cd\CD2\03 - Blues Magoos - We Ain't Got Nothin Yet.wav

Pre-gap length 0:00:01.06

Peak level 98.8 %
Extraction speed 4.9 X
Track quality 100.0 %
Test CRC FBAD693C
Copy CRC FBAD693C
Accurately ripped (confidence 12) [8CAAECC2] (AR v2)
Copy OK

Track 4

Filename G:\__New\_EAC rips\VA - Easy Rider (Music From The Soundtrack) [2004 Dlx Ed] (1969) 2cd\CD2\04 - Eric Burdon & the Animals - San Franciscan Nights.wav

Pre-gap length 0:00:01.10

Peak level 98.8 %
Extraction speed 5.5 X
Track quality 100.0 %
Test CRC D312D191
Copy CRC D312D191
Accurately ripped (confidence 12) [1AD54759] (AR v2)
Copy OK

Track 5

Filename G:\__New\_EAC rips\VA - Easy Rider (Music From The Soundtrack) [2004 Dlx Ed] (1969) 2cd\CD2\05 - Jefferson Airplane - White Rabbit.wav

Pre-gap length 0:00:01.06

Peak level 98.8 %
Extraction speed 5.6 X
Track quality 100.0 %
Test CRC A93636CD
Copy CRC A93636CD
Accurately ripped (confidence 12) [26FE2945] (AR v2)
Copy OK

Track 6

Filename G:\__New\_EAC rips\VA - Easy Rider (Music From The Soundtrack) [2004 Dlx Ed] (1969) 2cd\CD2\06 - The Who - I Can See for Miles.wav

Pre-gap length 0:00:01.06

Peak level 71.2 %
Extraction speed 6.3 X
Track quality 100.0 %
Test CRC 72197634
Copy CRC 72197634
Accurately ripped (confidence 12) [A46C49AD] (AR v2)
Copy OK

Track 7

Filename G:\__New\_EAC rips\VA - Easy Rider (Music From The Soundtrack) [2004 Dlx Ed] (1969) 2cd\CD2\07 - Procol Harum - A Whiter Shade of Pale.wav

Pre-gap length 0:00:01.05

Peak level 98.8 %
Extraction speed 4.7 X
Track quality 99.9 %
Test CRC EBB48D82
Copy CRC EBB48D82
Accurately ripped (confidence 12) [BCE088B2] (AR v2)
Copy OK

Track 8

Filename G:\__New\_EAC rips\VA - Easy Rider (Music From The Soundtrack) [2004 Dlx Ed] (1969) 2cd\CD2\08 - The Young Rascals - Groovin'.wav

Peak level 98.8 %
Extraction speed 6.4 X
Track quality 100.0 %
Test CRC D79071E4
Copy CRC D79071E4
Accurately ripped (confidence 12) [1401FF22] (AR v2)
Copy OK

Track 9

Filename G:\__New\_EAC rips\VA - Easy Rider (Music From The Soundtrack) [2004 Dlx Ed] (1969) 2cd\CD2\09 - Richie Havens - High Flyin' Bird.wav

Peak level 98.8 %
Extraction speed 7.1 X
Track quality 100.0 %
Test CRC F77443D1
Copy CRC F77443D1
Accurately ripped (confidence 12) [405862D2] (AR v2)
Copy OK

Track 10

Filename G:\__New\_EAC rips\VA - Easy Rider (Music From The Soundtrack) [2004 Dlx Ed] (1969) 2cd\CD2\10 - The Band - The Weight.wav

Pre-gap length 0:00:01.56

Peak level 98.8 %
Extraction speed 7.6 X
Track quality 100.0 %
Test CRC 7CA62F10
Copy CRC 7CA62F10
Accurately ripped (confidence 11) [7B41C3ED] (AR v2)
Copy OK

Track 11

Filename G:\__New\_EAC rips\VA - Easy Rider (Music From The Soundtrack) [2004 Dlx Ed] (1969) 2cd\CD2\11 - The Byrds - You Ain't Going Nowhere.wav

Pre-gap length 0:00:01.06

Peak level 98.8 %
Extraction speed 7.2 X
Track quality 100.0 %
Test CRC 688EAC73
Copy CRC 688EAC73
Accurately ripped (confidence 12) [984B1CD6] (AR v2)
Copy OK

Track 12

Filename G:\__New\_EAC rips\VA - Easy Rider (Music From The Soundtrack) [2004 Dlx Ed] (1969) 2cd\CD2\12 - The Chambers Brothers - The Time Has Come Today (single version).wav

Pre-gap length 0:00:01.40

Peak level 98.8 %
Extraction speed 8.3 X
Track quality 100.0 %
Test CRC 0E13DB1B
Copy CRC 0E13DB1B
Accurately ripped (confidence 12) [5104B63A] (AR v2)
Copy OK

Track 13

Filename G:\__New\_EAC rips\VA - Easy Rider (Music From The Soundtrack) [2004 Dlx Ed] (1969) 2cd\CD2\13 - Joe Cocker - With a Little Help from My Friends.wav

Pre-gap length 0:00:01.06

Peak level 87.3 %
Extraction speed 8.7 X
Track quality 100.0 %
Test CRC 37BCFD55
Copy CRC 37BCFD55
Accurately ripped (confidence 12) [AD68BF67] (AR v2)
Copy OK

Track 14

Filename G:\__New\_EAC rips\VA - Easy Rider (Music From The Soundtrack) [2004 Dlx Ed] (1969) 2cd\CD2\14 - Blue Cheer - Summertime Blues.wav

Peak level 98.8 %
Extraction speed 5.8 X
Track quality 99.9 %
Test CRC 3D50678E
Copy CRC 3D50678E
Accurately ripped (confidence 12) [E33B2ACB] (AR v2)
Copy OK

Track 15

Filename G:\__New\_EAC rips\VA - Easy Rider (Music From The Soundtrack) [2004 Dlx Ed] (1969) 2cd\CD2\15 - The Moody Blues - Nights in White Satin.wav

Peak level 98.8 %
Extraction speed 9.0 X
Track quality 100.0 %
Test CRC B5B3EB46
Copy CRC B5B3EB46
Accurately ripped (confidence 11) [C30627AF] (AR v2)
Copy OK

Track 16

Filename G:\__New\_EAC rips\VA - Easy Rider (Music From The Soundtrack) [2004 Dlx Ed] (1969) 2cd\CD2\16 - Sir Douglas Quintet - Mendocino.wav

Pre-gap length 0:00:01.06

Peak level 98.8 %
Extraction speed 8.7 X
Track quality 100.0 %
Test CRC 75B51B8F
Copy CRC 75B51B8F
Accurately ripped (confidence 11) [C39712D5] (AR v2)
Copy OK

Track 17

Filename G:\__New\_EAC rips\VA - Easy Rider (Music From The Soundtrack) [2004 Dlx Ed] (1969) 2cd\CD2\17 - The Youngbloods - Get Together.wav

Pre-gap length 0:00:01.06

Peak level 98.8 %
Extraction speed 6.4 X
Track quality 99.9 %
Test CRC 6BA36736
Copy CRC 6BA36736
Accurately ripped (confidence 11) [81C38ED0] (AR v2)
Copy OK

Track 18

Filename G:\__New\_EAC rips\VA - Easy Rider (Music From The Soundtrack) [2004 Dlx Ed] (1969) 2cd\CD2\18 - The Flying Burrito Brothers - My Unkle.wav

Pre-gap length 0:00:01.06

Peak level 98.8 %
Extraction speed 8.7 X
Track quality 100.0 %
Test CRC F926E7FB
Copy CRC F926E7FB
Accurately ripped (confidence 11) [56FBBEC3] (AR v2)
Copy OK

Track 19

Filename G:\__New\_EAC rips\VA - Easy Rider (Music From The Soundtrack) [2004 Dlx Ed] (1969) 2cd\CD2\19 - Thunderclap Newman - Something in the Air.wav

Peak level 98.8 %
Extraction speed 6.5 X
Track quality 99.9 %
Test CRC 585C0D43
Copy CRC 585C0D43
Accurately ripped (confidence 11) [977C0F72] (AR v2)
Copy OK


All tracks accurately ripped

No errors occurred

End of status report

–– CUETools DB Plugin V2.1.6

[CTDB TOCID: 5pFiG4t0fqU8UKgK6gsttWSM9Yw-] found
Submit result: 5pFiG4t0fqU8UKgK6gsttWSM9Yw- has been confirmed
Track | CTDB Status
1 | (32/32) Accurately ripped
2 | (32/32) Accurately ripped
3 | (32/32) Accurately ripped
4 | (32/32) Accurately ripped
5 | (32/32) Accurately ripped
6 | (32/32) Accurately ripped
7 | (32/32) Accurately ripped
8 | (32/32) Accurately ripped
9 | (32/32) Accurately ripped
10 | (32/32) Accurately ripped
11 | (32/32) Accurately ripped
12 | (32/32) Accurately ripped
13 | (32/32) Accurately ripped
14 | (32/32) Accurately ripped
15 | (32/32) Accurately ripped
16 | (32/32) Accurately ripped
17 | (32/32) Accurately ripped
18 | (31/32) Accurately ripped
19 | (32/32) Accurately ripped


==== Log checksum 5531BD5E4C3E0AD46D4DFA178C98C5001C54A553E604FCC1C6094D20BB34184A ====