Tags
Language
Tags
July 2024
Su Mo Tu We Th Fr Sa
30 1 2 3 4 5 6
7 8 9 10 11 12 13
14 15 16 17 18 19 20
21 22 23 24 25 26 27
28 29 30 31 1 2 3

From Me To You Kimi Ni Todoke - Birthday

Posted By: Otaku
From Me To You Kimi Ni Todoke - Birthday

From Me To You Kimi Ni Todoke - Birthday
MKV | 1920x1080 | English | H264 @ 3100 kbps | AAC @ 128.0 kbps | 23 min 6 s | 523 MiB



[S01.E24] From Me To You Kimi Ni Todoke - Birthday.mkv (522.7 MB)



General
Unique ID : 233428739602096312767972610359043377255 (0xAF9CBD6D3BD737B3E40BC33673414867)
Complete name : ./[S01.E24] From Me To You Kimi Ni Todoke - Birthday.mkv
Format : Matroska
Format version : Version 4
File size : 523 MiB
Duration : 23 min 6 s
Overall bit rate : 3 163 kb/s
Movie name : [S01.E24] From Me To You Kimi Ni Todoke - Birthday
Encoded date : UTC 2024-02-05 07:55:28
Writing application : mkvmerge v82.0 ('I'm The President') 64-bit
Writing library : libebml v1.4.5 + libmatroska v1.7.1
Cover : Yes
Attachments : cover.jpg / trebucbd.ttf / trebucbi.ttf

Video
ID : 1
Format : AVC
Format/Info : Advanced Video Codec
Format profile : High@L4.1
Format settings : CABAC / 4 Ref Frames
Format settings, CABAC : Yes
Format settings, Reference frames : 4 frames
Codec ID : V_MPEG4/ISO/AVC
Duration : 22 min 40 s
Bit rate : 3 100 kb/s
Width : 1 920 pixels
Height : 1 080 pixels
Display aspect ratio : 16:9
Frame rate mode : Constant
Frame rate : 23.976 (24000/1001) FPS
Color space : YUV
Chroma subsampling : 4:2:0
Bit depth : 8 bits
Scan type : Progressive
Bits/(Pixel*Frame) : 0.062
Stream size : 501 MiB (96%)
Writing library : x264 core 164 r3095 baee400
Encoding settings : cabac=1 / ref=4 / deblock=1:1:1 / analyse=0x3:0x113 / me=hex / subme=7 / psy=1 / psy_rd=0.40:0.00 / mixed_ref=1 / me_range=16 / chroma_me=1 / trellis=1 / 8x8dct=1 / cqm=0 / deadzone=21,11 / fast_pskip=1 / chroma_qp_offset=-2 / threads=34 / lookahead_threads=8 / sliced_threads=0 / nr=0 / decimate=1 / interlaced=0 / bluray_compat=0 / constrained_intra=0 / bframes=5 / b_pyramid=2 / b_adapt=2 / b_bias=0 / direct=1 / weightb=1 / open_gop=0 / weightp=2 / keyint=96 / keyint_min=9 / scenecut=0 / intra_refresh=0 / rc_lookahead=40 / rc=2pass / mbtree=1 / bitrate=3100 / ratetol=1.0 / qcomp=0.60 / qpmin=0 / qpmax=69 / qpstep=4 / cplxblur=20.0 / qblur=0.5 / vbv_maxrate=6200 / vbv_bufsize=3100 / nal_hrd=none / filler=0 / ip_ratio=1.40 / aq=1:0.60
Default : Yes
Forced : No

Audio
ID : 2
Format : AAC LC SBR
Format/Info : Advanced Audio Codec Low Complexity with Spectral Band Replication
Commercial name : HE-AAC
Format settings : Explicit
Codec ID : A_AAC-2
Duration : 23 min 6 s
Bit rate : 128 kb/s
Channel(s) : 2 channels
Channel layout : L R
Sampling rate : 48.0 kHz
Frame rate : 23.438 FPS (2048 SPF)
Compression mode : Lossy
Delay relative to video : 24 ms
Stream size : 21.2 MiB (4%)
Language : English
Default : Yes
Forced : No





From Me To You Kimi Ni Todoke - Birthday


From Me To You Kimi Ni Todoke - Birthday


From Me To You Kimi Ni Todoke - Birthday


From Me To You Kimi Ni Todoke - Birthday