Tags
Language
Tags
July 2024
Su Mo Tu We Th Fr Sa
30 1 2 3 4 5 6
7 8 9 10 11 12 13
14 15 16 17 18 19 20
21 22 23 24 25 26 27
28 29 30 31 1 2 3

Dog Signal S01E14 1080p WEB x264

Posted By: Otaku
Dog Signal S01E14 1080p WEB x264

Dog Signal S01E14 1080p WEB x264
MKV | 1920x1080 | 日本語 | H264 @ 3406 kbps | AAC @ 125.588 kbps | 25 min 3 s | 633 MiB
Subtitles: English, 中文



Dog Signal S01E14 1080p WEB x264.mkv (633.3 MB)



General
Unique ID : 153296033531732856492038725399572418595 (0x7353BDFC754841306467B891A47C9023)
Complete name : ./Dog Signal S01E14 1080p WEB x264.mkv
Format : Matroska
Format version : Version 4
File size : 633 MiB
Duration : 25 min 3 s
Overall bit rate : 3 535 kb/s
Encoded date : UTC 2024-02-05 12:29:27
Writing application : mkvmerge v78.0 ('Running') 64-bit
Writing library : libebml v1.4.4 + libmatroska v1.7.1

Video
ID : 1
Format : AVC
Format/Info : Advanced Video Codec
Format profile : High@L4
Format settings : CABAC / 3 Ref Frames
Format settings, CABAC : Yes
Format settings, Reference frames : 3 frames
Codec ID : V_MPEG4/ISO/AVC
Duration : 25 min 3 s
Bit rate : 3 407 kb/s
Width : 1 920 pixels
Height : 1 080 pixels
Display aspect ratio : 16:9
Frame rate mode : Constant
Frame rate : 23.976 (24000/1001) FPS
Color space : YUV
Chroma subsampling : 4:2:0
Bit depth : 8 bits
Scan type : Progressive
Bits/(Pixel*Frame) : 0.069
Stream size : 610 MiB (96%)
Language : Japanese
Default : Yes
Forced : No

Audio
ID : 2
Format : AAC LC
Format/Info : Advanced Audio Codec Low Complexity
Codec ID : A_AAC-2
Duration : 25 min 3 s
Bit rate : 126 kb/s
Channel(s) : 2 channels
Channel layout : L R
Sampling rate : 44.1 kHz
Frame rate : 43.066 FPS (1024 SPF)
Compression mode : Lossy
Stream size : 22.5 MiB (4%)
Language : Japanese
Default : Yes
Forced : No

Text #1
ID : 3
Format : UTF-8
Codec ID : S_TEXT/UTF8
Codec ID/Info : UTF-8 Plain Text
Duration : 24 min 28 s
Bit rate : 66 b/s
Frame rate : 0.291 FPS
Count of elements : 427
Stream size : 12.0 KiB (0%)
Language : English
Default : Yes
Forced : No

Text #2
ID : 4
Format : UTF-8
Codec ID : S_TEXT/UTF8
Codec ID/Info : UTF-8 Plain Text
Duration : 24 min 28 s
Bit rate : 61 b/s
Frame rate : 0.291 FPS
Count of elements : 427
Stream size : 11.0 KiB (0%)
Language : Chinese
Default : No
Forced : No





Dog Signal S01E14 1080p WEB x264


Dog Signal S01E14 1080p WEB x264


Dog Signal S01E14 1080p WEB x264


Dog Signal S01E14 1080p WEB x264