Tags
Language
Tags
July 2024
Su Mo Tu We Th Fr Sa
30 1 2 3 4 5 6
7 8 9 10 11 12 13
14 15 16 17 18 19 20
21 22 23 24 25 26 27
28 29 30 31 1 2 3

Detective Conan - 1119 mkv

Posted By: Otaku
Detective Conan - 1119 mkv

Detective Conan - 1119 mkv
MKV | 1920x1080 | H265 @ 1411 kbps | AAC @ 192.0 kbps | 24 min 40 s | 283 MiB
Subtitles: English



[New-raws] Detective Conan - 1119 [1080p] [ENG].mkv (282.8 MB)



General
Unique ID : 127083081975452135247995048929374224617 (0x5F9B4FB15DED20A73767FA3DB557C0E9)
Complete name : ./[New-raws] Detective Conan - 1119 [1080p] [ENG].mkv
Format : Matroska
Format version : Version 4
File size : 283 MiB
Duration : 24 min 40 s
Overall bit rate : 1 603 kb/s
Encoded date : UTC 2024-04-06 11:57:28
Writing application : mkvmerge v26.0.0 ('In The Game') 64-bit
Writing library : libebml v1.3.6 + libmatroska v1.4.9

Video
ID : 1
Format : HEVC
Format/Info : High Efficiency Video Coding
Format profile : Main@L5@Main
Codec ID : V_MPEGH/ISO/HEVC
Duration : 24 min 40 s
Bit rate : 1 412 kb/s
Width : 1 920 pixels
Height : 1 080 pixels
Display aspect ratio : 16:9
Frame rate mode : Constant
Frame rate : 29.970 (30000/1001) FPS
Original frame rate : 29.970 (29970/1000) FPS
Color space : YUV
Chroma subsampling : 4:2:0
Bit depth : 8 bits
Bits/(Pixel*Frame) : 0.023
Stream size : 249 MiB (88%)
Default : Yes
Forced : No
Color range : Limited
Color primaries : BT.709
Transfer characteristics : BT.709
Matrix coefficients : BT.709

Audio
ID : 2
Format : AAC LC
Format/Info : Advanced Audio Codec Low Complexity
Codec ID : A_AAC-2
Duration : 24 min 40 s
Bit rate : 192 kb/s
Channel(s) : 2 channels
Channel layout : L R
Sampling rate : 48.0 kHz
Frame rate : 46.875 FPS (1024 SPF)
Compression mode : Lossy
Delay relative to video : -133 ms
Stream size : 33.3 MiB (12%)
Default : Yes
Forced : No

Text
ID : 3
Format : UTF-8
Codec ID : S_TEXT/UTF8
Codec ID/Info : UTF-8 Plain Text
Duration : 24 min 15 s
Bit rate : 55 b/s
Frame rate : 0.196 FPS
Count of elements : 285
Stream size : 9.79 KiB (0%)
Language : English
Default : Yes
Forced : No





Detective Conan - 1119 mkv


Detective Conan - 1119 mkv


Detective Conan - 1119 mkv


Detective Conan - 1119 mkv