Tags
Language
Tags
July 2024
Su Mo Tu We Th Fr Sa
30 1 2 3 4 5 6
7 8 9 10 11 12 13
14 15 16 17 18 19 20
21 22 23 24 25 26 27
28 29 30 31 1 2 3

Boku no Hero Academia 7th Season (Memories) - 01

Posted By: Otaku
Boku no Hero Academia 7th Season (Memories) - 01

Boku no Hero Academia 7th Season (Memories) - 01
MKV | 1280x720 | 日本語 | H264 @ 4000 kbps | AAC @ 128.0 kbps | 23 min 55 s | 713 MiB
Subtitles: Français, English, Deutsch, Español, Português, Italiano, Русский



[Erai-raws] Boku no Hero Academia 7th Season (Memories) - 01 [720p][Multiple Subtitle][C7581211].mkv (712.8 MB)



General
Unique ID : 144052033263084147056359033125533376827 (0x6C5F6995BDD31012B6E3E96A95C3E13B)
Complete name : ./[Erai-raws] Boku no Hero Academia 7th Season (Memories) - 01 [720p][Multiple Subtitle][C7581211].mkv
Format : Matroska
Format version : Version 4
File size : 713 MiB
Duration : 23 min 55 s
Overall bit rate : 4 165 kb/s
Encoded date : UTC 2024-04-06 11:45:06
Writing application : mkvmerge v83.0 ('Circle Of Friends') 64-bit
Writing library : libebml v1.4.5 + libmatroska v1.7.1
Attachments : AdLibBT.ttf / AdLibRg.ttf / arialbd_1.ttf / arialbi_1.ttf / ariali_1.ttf / ARIALNB.TTF / arial_1.ttf / ariblk_1.ttf / balonxb.ttf / BelweBdBTBold.ttf / BRITANIC.TTF / CHILLER.TTF / comicbd_0.ttf / comici_0.ttf / comicz_0.ttf / comic_0.ttf / consolab_0.ttf / COOPBL.ttf / courbd_1.ttf / cour_1.ttf / DejaVuSans-Bold.ttf / DejaVuSansCondensed-Bold.ttf / domcasn.ttf / ebrimabd_0.ttf / Eraser.ttf / FirstGrader.ttf / Freeh471.ttf / FRHND471.TTF / Garamond Bold font.ttf / georgiab_0.ttf / georgiai_0.ttf / georgiaz_0.ttf / georgia_0.ttf / impact_0.ttf / Impress.ttf / JAPAB_.TTF / Rubik-Bold.ttf / Rubik-Light.ttf / Rubik-Regular.ttf / segoeprb_0.ttf / SQR721KN.TTF / SqueakyChalkSound.ttf / STAC222N.TTF / Stacc222.ttf / staccato 555 bt.ttf / Swis721_BT_Bold.ttf / tahomabd_0.ttf / tahoma_1.ttf / timesbd_1.ttf / timesbi_1.ttf / timesi_1.ttf / times_3.ttf / Tonic Regular.ttf / trebucbd_0.ttf / trebucbi_0.ttf / trebucit_0.ttf / trebuc_0.ttf / VAGRoundedBT.ttf / verdanab_0.ttf / verdanaz_0.ttf / verdana_0.ttf / AdobeArabic-Bold.otf / AdobeArabic-BoldItalic.otf / AdobeArabic-Italic.otf / AdobeArabic-Regular.otf

Video
ID : 1
Format : AVC
Format/Info : Advanced Video Codec
Format profile : High@L4
Format settings : CABAC / 6 Ref Frames
Format settings, CABAC : Yes
Format settings, Reference frames : 6 frames
Codec ID : V_MPEG4/ISO/AVC
Duration : 23 min 50 s
Bit rate : 4 000 kb/s
Width : 1 280 pixels
Height : 720 pixels
Display aspect ratio : 16:9
Frame rate mode : Constant
Frame rate : 23.976 (24000/1001) FPS
Color space : YUV
Chroma subsampling : 4:2:0
Bit depth : 8 bits
Scan type : Progressive
Bits/(Pixel*Frame) : 0.181
Stream size : 678 MiB (95%)
Writing library : x264 core 164
Encoding settings : cabac=1 / ref=6 / deblock=1:1:1 / analyse=0x3:0x113 / me=hex / subme=8 / psy=1 / psy_rd=0.40:0.00 / mixed_ref=1 / me_range=16 / chroma_me=1 / trellis=2 / 8x8dct=1 / cqm=0 / deadzone=21,11 / fast_pskip=1 / chroma_qp_offset=-2 / threads=9 / lookahead_threads=1 / sliced_threads=0 / nr=0 / decimate=1 / interlaced=0 / bluray_compat=0 / constrained_intra=0 / bframes=0 / weightp=2 / keyint=96 / keyint_min=48 / scenecut=40 / intra_refresh=0 / rc_lookahead=48 / rc=2pass / mbtree=1 / bitrate=4000 / ratetol=1.0 / qcomp=0.60 / qpmin=0 / qpmax=69 / qpstep=4 / cplxblur=20.0 / qblur=0.5 / vbv_maxrate=6000 / vbv_bufsize=9000 / nal_hrd=none / filler=0 / ip_ratio=1.40 / aq=1:0.60
Language : Japanese
Default : Yes
Forced : No
Color range : Limited
Color primaries : BT.709
Transfer characteristics : BT.709
Matrix coefficients : BT.709

Audio
ID : 2
Format : AAC LC
Format/Info : Advanced Audio Codec Low Complexity
Codec ID : A_AAC-2
Duration : 23 min 50 s
Bit rate : 128 kb/s
Channel(s) : 2 channels
Channel layout : L R
Sampling rate : 44.1 kHz
Frame rate : 43.066 FPS (1024 SPF)
Compression mode : Lossy
Stream size : 21.8 MiB (3%)
Language : Japanese
Default : Yes
Forced : No

Text #1
ID : 3
Format : ASS
Codec ID : S_TEXT/ASS
Codec ID/Info : Advanced Sub Station Alpha
Duration : 23 min 46 s
Bit rate : 159 b/s
Frame rate : 0.271 FPS
Count of elements : 386
Compression mode : Lossless
Stream size : 27.8 KiB (0%)
Title : English
Language : English
Default : Yes
Forced : No

Text #2
ID : 4
Format : ASS
Codec ID : S_TEXT/ASS
Codec ID/Info : Advanced Sub Station Alpha
Duration : 23 min 40 s
Bit rate : 187 b/s
Frame rate : 0.299 FPS
Count of elements : 425
Compression mode : Lossless
Stream size : 32.5 KiB (0%)
Title : Portuguese(Brazil)
Language : Portuguese
Default : No
Forced : No

Text #3
ID : 5
Format : ASS
Codec ID : S_TEXT/ASS
Codec ID/Info : Advanced Sub Station Alpha
Duration : 23 min 42 s
Bit rate : 135 b/s
Frame rate : 0.236 FPS
Count of elements : 335
Compression mode : Lossless
Stream size : 23.5 KiB (0%)
Title : Spanish(Latin_America)
Language : Spanish
Default : No
Forced : No

Text #4
ID : 6
Format : ASS
Codec ID : S_TEXT/ASS
Codec ID/Info : Advanced Sub Station Alpha
Duration : 23 min 42 s
Bit rate : 135 b/s
Frame rate : 0.236 FPS
Count of elements : 335
Compression mode : Lossless
Stream size : 23.5 KiB (0%)
Title : Spanish
Language : Spanish
Default : No
Forced : No

Text #5
ID : 7
Format : ASS
Codec ID : S_TEXT/ASS
Codec ID/Info : Advanced Sub Station Alpha
Duration : 23 min 40 s
Bit rate : 143 b/s
Frame rate : 0.249 FPS
Count of elements : 354
Compression mode : Lossless
Stream size : 25.0 KiB (0%)
Title : French
Language : French
Default : No
Forced : No

Text #6
ID : 8
Format : ASS
Codec ID : S_TEXT/ASS
Codec ID/Info : Advanced Sub Station Alpha
Duration : 23 min 40 s
Bit rate : 167 b/s
Frame rate : 0.263 FPS
Count of elements : 374
Compression mode : Lossless
Stream size : 29.1 KiB (0%)
Title : German
Language : German
Default : No
Forced : No

Text #7
ID : 9
Format : ASS
Codec ID : S_TEXT/ASS
Codec ID/Info : Advanced Sub Station Alpha
Duration : 23 min 40 s
Bit rate : 156 b/s
Frame rate : 0.245 FPS
Count of elements : 348
Compression mode : Lossless
Stream size : 27.1 KiB (0%)
Title : Italian
Language : Italian
Default : No
Forced : No

Text #8
ID : 10
Format : ASS
Codec ID : S_TEXT/ASS
Codec ID/Info : Advanced Sub Station Alpha
Duration : 23 min 40 s
Bit rate : 176 b/s
Frame rate : 0.234 FPS
Count of elements : 333
Compression mode : Lossless
Stream size : 30.7 KiB (0%)
Title : Russian
Language : Russian
Default : No
Forced : No





Boku no Hero Academia 7th Season (Memories) - 01


Boku no Hero Academia 7th Season (Memories) - 01


Boku no Hero Academia 7th Season (Memories) - 01


Boku no Hero Academia 7th Season (Memories) - 01