Tags
Language
Tags
May 2024
Su Mo Tu We Th Fr Sa
28 29 30 1 2 3 4
5 6 7 8 9 10 11
12 13 14 15 16 17 18
19 20 21 22 23 24 25
26 27 28 29 30 31 1

Benriya Saitou-san, Isekai ni Iku - S01E11

Posted By: Otaku
Benriya Saitou-san, Isekai ni Iku - S01E11

Benriya Saitou-san, Isekai ni Iku - S01E11
MKV | 1920x1080 | 日本語 | H264 @ 6337 kbps | Opus @ 190.859 kbps | 23 min 41 s | 1.08 GiB
Subtitles: Português, English



[Anitsu] Benriya Saitou-san, Isekai ni Iku - S01E11 [USBD 1080p x264 Opus][1909F95D].mkv (1.1 GB)



General
Unique ID : 221271642539256277558190986534151097700 (0xA6775E43BB6C956C4EAD0BA6640D8D64)
Complete name : ./[Anitsu] Benriya Saitou-san, Isekai ni Iku - S01E11 [USBD 1080p x264 Opus][1909F95D].mkv
Format : Matroska
Format version : Version 4
File size : 1.08 GiB
Duration : 23 min 41 s
Overall bit rate : 6 532 kb/s
Encoded date : UTC 2024-05-14 22:18:42
Writing application : mkvmerge v81.0 ('Milliontown') 64-bit
Writing library : libebml v1.4.4 + libmatroska v1.7.1

Video
ID : 1
Format : AVC
Format/Info : Advanced Video Codec
Format profile : High@L4
Format settings : CABAC / 4 Ref Frames
Format settings, CABAC : Yes
Format settings, Reference frames : 4 frames
Codec ID : V_MPEG4/ISO/AVC
Duration : 23 min 41 s
Bit rate : 6 338 kb/s
Width : 1 920 pixels
Height : 1 080 pixels
Display aspect ratio : 16:9
Frame rate mode : Constant
Frame rate : 23.976 (24000/1001) FPS
Color space : YUV
Chroma subsampling : 4:2:0
Bit depth : 8 bits
Scan type : Progressive
Bits/(Pixel*Frame) : 0.127
Stream size : 1.05 GiB (97%)
Title : BD 1080p x264 Reinforce
Writing library : x264 core 164
Encoding settings : opencl=1 / cabac=1 / ref=4 / deblock=1:-2:-2 / analyse=0x3:0x113 / me=umh / subme=9 / psy=1 / psy_rd=0.70:0.00 / mixed_ref=0 / me_range=32 / chroma_me=1 / trellis=2 / 8x8dct=1 / cqm=0 / deadzone=21,11 / fast_pskip=1 / chroma_qp_offset=-2 / threads=8 / lookahead_threads=1 / sliced_threads=0 / nr=0 / decimate=1 / interlaced=0 / bluray_compat=0 / constrained_intra=0 / bframes=9 / b_pyramid=2 / b_adapt=2 / b_bias=0 / direct=3 / weightb=1 / open_gop=0 / weightp=2 / keyint=250 / keyint_min=23 / scenecut=40 / intra_refresh=0 / rc_lookahead=40 / rc=crf / mbtree=1 / crf=16.0 / qcomp=0.70 / qpmin=10 / qpmax=20 / qpstep=4 / ip_ratio=1.40 / aq=1:1.00
Default : Yes
Forced : No

Audio
ID : 2
Format : Opus
Codec ID : A_OPUS
Duration : 23 min 41 s
Bit rate : 191 kb/s
Channel(s) : 2 channels
Channel layout : L R
Sampling rate : 48.0 kHz
Frame rate : 50.000 FPS (960 SPF)
Compression mode : Lossy
Stream size : 32.4 MiB (3%)
Title : Opus 2.0
Writing library : Lavc59.24.100 libopus
Language : Japanese
Default : Yes
Forced : No

Text #1
ID : 3
Format : ASS
Codec ID : S_TEXT/ASS
Codec ID/Info : Advanced Sub Station Alpha
Duration : 23 min 32 s
Bit rate : 122 b/s
Frame rate : 0.238 FPS
Count of elements : 336
Compression mode : Lossless
Stream size : 21.1 KiB (0%)
Title : pt-BR - Crunchyroll
Language : Portuguese
Default : Yes
Forced : No

Text #2
ID : 4
Format : ASS
Codec ID : S_TEXT/ASS
Codec ID/Info : Advanced Sub Station Alpha
Duration : 23 min 32 s
Bit rate : 135 b/s
Frame rate : 0.238 FPS
Count of elements : 336
Compression mode : Lossless
Stream size : 23.3 KiB (0%)
Title : en-US Crunchyroll
Language : English
Default : No
Forced : No

Menu
00:00:00.000 : :Prólogo
00:02:19.014 : :Abertura
00:03:49.020 : :Parte A
00:13:31.978 : :Parte B
00:22:10.955 : :Encerramento





Benriya Saitou-san, Isekai ni Iku - S01E11


Benriya Saitou-san, Isekai ni Iku - S01E11


Benriya Saitou-san, Isekai ni Iku - S01E11


Benriya Saitou-san, Isekai ni Iku - S01E11