Tags
Language
Tags

Wilko Johnson & Roger Daltrey - Going Back Home (2014) 2CD Deluxe Edition

Posted By: Designol
Wilko Johnson & Roger Daltrey - Going Back Home (2014) 2CD Deluxe Edition

Wilko Johnson & Roger Daltrey - Going Back Home (2014) 2CD Deluxe Edition
EAC | FLAC | Tracks (Cue&Log) ~ 725 Mb | Mp3 (CBR320) ~ 244 Mb | Scans ~ 261 Mb
Rock, Pub Rock, Blues Rock, Rock & Roll | Label: Chess | # CRCDE2014 | Time: 01:46:32

Wilko Johnson, legendary guitarist with Dr Feelgood, and Roger Daltrey, lead singer of rock giants The Who are to release a joint album GOING BACK HOME on the world famous Chess label which has been resurrected specifically for this record. The album features 11 tracks, ten of which are Wilko originals from both his Dr Feelgood days and solo years, whilst the sole cover on the album is a version of Bob Dylan's HIGHWAY 61 REVISITED classic 'Can You Please Crawl Out Your Window'. The album also includes the track 'Turned 21' which has never been properly released or performed live. A deluxe edition of Going Back Home was released at the end of 2014. The bonus disc contains five studio outtakes: three are Wilko-fronted versions of album cuts, there's a radio edit of the title track, then the unreleased "Muskrat." Then, there are six live cuts from the Wilko Johnson Band from February 2014, then another seven live cuts with Daltrey and Johnson, all dating from early 2014, all proving what a dynamic pairing this duo was.

Early in 2013, Wilko Johnson received the news that he had terminal pancreatic cancer and had maybe ten months to live. Instead of whiling away his final days, Johnson set out on a final tour and, finding himself still standing at the end of it, received an invitation from Who singer Roger Daltrey to go into the studio and record an album of whatever songs the guitarist wanted. Wilko had a few new originals, plus the idea to cover Bob Dylan's "Can You Please Crawl Out Your Window," but he mainly stuck to the Dr. Feelgood songbook: the hard R&B and rock & roll songs he wrote and recorded in the '70s that continued to resonate decades later. Supported by his touring band, Johnson entered the studio with Daltrey and knocked out Going Back Home in a week, just like the Feelgoods and the Who did back in the old days. That twin connection is important, as Going Back Home isn't merely a return to Wilko's roots, it's a homecoming for Daltrey as well, marking the first time in decades that he's sung such tough, blues-based, three-chord rock & roll. It may seem that a generation separates the two rockers – Johnson's first album with Dr. Feelgood, 1975's Down by the Jetty, appeared nearly a decade after the Who's 1965 debut Sing My Generation – but the singer is only four years older than the guitarist, so they share many core American blues and R&B influences, speaking a common language from different perspectives. Both musicians are notably older than they were back then – Daltrey doesn't bother reaching for the high notes and Johnson's playing isn't as manic as it was during the Feelgoods – but that's what makes Going Back Home special: neither are bothering to hide their age, nor are they desperately attempting to recapture their youth; they're reconnecting to their roots and seizing the present. Johnson penned the handful of originals not long after receiving his terminal diagnosis, but there isn't a shred of self-pity or sadness here. He's making noise while he still can, and Daltrey matches Wilko's abandon, sounding liberated to be singing songs that aren't racked with Pete Townshend's self-doubt. Roger's lower register is gruff, wearing the scars and weight of his years, while Wilko's guitar slices, pushing and accelerating the beat with alternating precision and recklessness. In the other, each musician has found a sparring partner who rivals his famed original partner: Daltrey has the gravity and menace of Lee Brilleaux and Johnson hits back with the savagery of Townshend. It's tough stuff but it's also enthusiastic, infectious fun, a record of three-minute songs that blazes by in just over a half-hour. That velocity is crucial to the creation of Going Back Home; it was made with the realization that the clock was about to run out, that Wilko Johnson might not live to see its release. That rawness also makes it a fitting coda to not only his career but also to Daltrey's: by finding sustenance in the music they originally loved, they've made a testament to the enduring power of music and how it enriches and strengthens a life. [A deluxe edition of Going Back Home was released at the end of 2014. The bonus disc contains five studio outtakes: three are Wilko-fronted versions of album cuts, there's a radio edit of the title track, then the unreleased "Muskrat." Then, there are six live cuts from the Wilko Johnson Band from February 2014, then another seven live cuts with Daltrey and Johnson, all dating from early 2014, all proving what a dynamic pairing this duo was.]

Review by Stephen Thomas Erlewine, Allmusic.com

Wilko Johnson & Roger Daltrey - Going Back Home (2014) 2CD Deluxe Edition



Tracklist:

CD1 - Original Album:

01. Going Back Home (03:59)
02. Ice On The Motorway (02:49)
03. I Keep It To Myself (03:22)
04. Can You Please Crawl Out Your Window (03:37)
05. Turned 21 (03:06)
06. Keep On Loving You (02:58)
07. Some Kind Of Hero (02:26)
08. Sneaking Suspicion (03:45)
09. Keep It Out Of Sight (02:44)
10. Everybody's Carrying A Gun (02:58)
11. All Through The City (02:50)

CD2 - Bonus:

01. Muskrat (02:51)
02. Some Kind Of Hero (Wilko Version) (02:26)
03. Keep On Loving You (Wilko Version) (02:58)
04. Turned 21 (Wilko Version) (03:07)
05. Going Back Home (Radio Edit) (03:17)
06. All Right (Live At The Shepherd's Bush Empire (25/02/2014)) (03:44)
07. Barbed Wire Blues (Live At The Shepherd's Bush Empire (25/02/2014)) (04:33)
08. The More I Give (Live At The Shepherd's Bush Empire (25/02/2014)) (03:37)
09. Dr. Dupree (Live At The Shepherd's Bush Empire (25/02/2014)) (04:14)
10. When I'm Gone (Live At The Shepherd's Bush Empire (25/02/2014)) (08:40)
11. Roxette (Live At The Shepherd's Bush Empire (25/02/2014)) (05:54)
12. Going Back Home (Live At Royal Albert Hall, Teenage Cancer Trust 2014) (04:22)
13. I Keep It To Myself (Live At Royal Albert Hall, Teenage Cancer Trust 2014) (03:21)
14. Keep On Loving You (Live At Royal Albert Hall, Teenage Cancer Trust 2014) (03:26)
15. Sneaking Suspicion (Live At Royal Albert Hall, Teenage Cancer Trust 2014) (04:17)
16. All Through The City (Live At Royal Albert Hall, Teenage Cancer Trust 2014) (02:57)
17. Everybody's Carrying A Gun (Live At The Shepherd's Bush Empire (25/02/2014)) (04:31)
18. Some Kind Of Hero (Live At The Shepherd's Bush Empire (25/02/2014)) (03:32)


Exact Audio Copy V1.1 from 23. June 2015

Отчёт EAC об извлечении, выполненном 21. февраля 2016, 19:16

Wilko Johnson, Roger Daltrey / Going Back Home

Дисковод: HL-DT-STDVD-RAM GH22NP20 Adapter: 0 ID: 0

Режим чтения : Достоверность
Использование точного потока : Да
Отключение кэша аудио : Да
Использование указателей C2 : Нет

Коррекция смещения при чтении : 102
Способность читать области Lead-in и Lead-out : Нет
Заполнение пропущенных сэмплов тишиной : Да
Удаление блоков с тишиной в начале и конце : Нет
При вычислениях CRC использовались нулевые сэмплы : Да
Интерфейс : Установленный внешний ASPI-интерфейс
Обработка зазоров : Добавлено к предыдущему треку

Выходной формат : Пользовательский кодировщик
Выбранный битрейт : 128 kBit/s
Качество : Высокий
Добавление ID3-тега : Нет
Утилита сжатия : E:\flac-1.3.1-win\win64\flac.exe
Дополнительные параметры : -V -8 -T "Date=%year%" -T "Genre=%genre%" %source%


TOC извлечённого CD

Трек | Старт | Длительность | Начальный сектор | Конечный сектор
––––––––––––––––––––––––––––––––––-
1 | 0:00.00 | 3:59.28 | 0 | 17952
2 | 3:59.28 | 2:49.20 | 17953 | 30647
3 | 6:48.48 | 3:22.30 | 30648 | 45827
4 | 10:11.03 | 3:37.27 | 45828 | 62129
5 | 13:48.30 | 3:06.54 | 62130 | 76133
6 | 16:55.09 | 2:58.10 | 76134 | 89493
7 | 19:53.19 | 2:26.18 | 89494 | 100461
8 | 22:19.37 | 3:45.52 | 100462 | 117388
9 | 26:05.14 | 2:44.20 | 117389 | 129708
10 | 28:49.34 | 2:58.12 | 129709 | 143070
11 | 31:47.46 | 2:50.49 | 143071 | 155869


Трек 1

Имя файла E:\Wilko Johnson, Roger Daltrey - Going Back Home (2014, Deluxe Edition, Chess, EU, CRCDE2014)\CD1\01 Going Back Home.wav

Длина предзазора 0:00:02.00

Пиковый уровень 100.0 %
Скорость извлечения 1.4 X
Качество трека 99.9 %
CRC теста DB083BBB
CRC копии DB083BBB
Копирование… OK

Трек 2

Имя файла E:\Wilko Johnson, Roger Daltrey - Going Back Home (2014, Deluxe Edition, Chess, EU, CRCDE2014)\CD1\02 Ice On The Motorway.wav

Пиковый уровень 100.0 %
Скорость извлечения 1.6 X
Качество трека 100.0 %
CRC теста A37DF333
CRC копии A37DF333
Копирование… OK

Трек 3

Имя файла E:\Wilko Johnson, Roger Daltrey - Going Back Home (2014, Deluxe Edition, Chess, EU, CRCDE2014)\CD1\03 I Keep It To Myself.wav

Пиковый уровень 100.0 %
Скорость извлечения 1.8 X
Качество трека 100.0 %
CRC теста E7ECDFB9
CRC копии E7ECDFB9
Копирование… OK

Трек 4

Имя файла E:\Wilko Johnson, Roger Daltrey - Going Back Home (2014, Deluxe Edition, Chess, EU, CRCDE2014)\CD1\04 Can You Please Crawl Out Your Window.wav

Пиковый уровень 100.0 %
Скорость извлечения 1.9 X
Качество трека 100.0 %
CRC теста 25B50292
CRC копии 25B50292
Копирование… OK

Трек 5

Имя файла E:\Wilko Johnson, Roger Daltrey - Going Back Home (2014, Deluxe Edition, Chess, EU, CRCDE2014)\CD1\05 Turned 21.wav

Пиковый уровень 100.0 %
Скорость извлечения 2.0 X
Качество трека 100.0 %
CRC теста 83D532FD
CRC копии 83D532FD
Копирование… OK

Трек 6

Имя файла E:\Wilko Johnson, Roger Daltrey - Going Back Home (2014, Deluxe Edition, Chess, EU, CRCDE2014)\CD1\06 Keep On Loving You.wav

Пиковый уровень 100.0 %
Скорость извлечения 2.1 X
Качество трека 100.0 %
CRC теста D167354B
CRC копии D167354B
Копирование… OK

Трек 7

Имя файла E:\Wilko Johnson, Roger Daltrey - Going Back Home (2014, Deluxe Edition, Chess, EU, CRCDE2014)\CD1\07 Some Kind Of Hero.wav

Пиковый уровень 100.0 %
Скорость извлечения 2.1 X
Качество трека 100.0 %
CRC теста CC432374
CRC копии CC432374
Копирование… OK

Трек 8

Имя файла E:\Wilko Johnson, Roger Daltrey - Going Back Home (2014, Deluxe Edition, Chess, EU, CRCDE2014)\CD1\08 Sneaking Suspicion.wav

Пиковый уровень 100.0 %
Скорость извлечения 2.4 X
Качество трека 100.0 %
CRC теста 0735E4DD
CRC копии 0735E4DD
Копирование… OK

Трек 9

Имя файла E:\Wilko Johnson, Roger Daltrey - Going Back Home (2014, Deluxe Edition, Chess, EU, CRCDE2014)\CD1\09 Keep It Out Of Sight.wav

Пиковый уровень 100.0 %
Скорость извлечения 2.3 X
Качество трека 100.0 %
CRC теста FB7CE38B
CRC копии FB7CE38B
Копирование… OK

Трек 10

Имя файла E:\Wilko Johnson, Roger Daltrey - Going Back Home (2014, Deluxe Edition, Chess, EU, CRCDE2014)\CD1\10 Everybody's Carrying A Gun.wav

Пиковый уровень 100.0 %
Скорость извлечения 2.4 X
Качество трека 100.0 %
CRC теста 65B6F40F
CRC копии 65B6F40F
Копирование… OK

Трек 11

Имя файла E:\Wilko Johnson, Roger Daltrey - Going Back Home (2014, Deluxe Edition, Chess, EU, CRCDE2014)\CD1\11 All Through The City.wav

Пиковый уровень 100.0 %
Скорость извлечения 2.0 X
Качество трека 99.9 %
CRC теста E677351F
CRC копии E677351F
Копирование… OK

Ошибок не произошло

Конец отчёта

==== Контрольная сумма отчёта 0BABFC13D311C7563DC6614C933A94C72A484174E937CA4D8F3C06032A615FB1 ====

foobar2000 1.2 / Dynamic Range Meter 1.1.1
log date: 2016-03-04 19:54:06

––––––––––––––––––––––––––––––––––––––––
Analyzed: Wilko Johnson & Roger Daltrey / Going Back Home
––––––––––––––––––––––––––––––––––––––––

DR Peak RMS Duration Track
––––––––––––––––––––––––––––––––––––––––
DR6 0.00 dB -6.74 dB 3:59 01-Going Back Home
DR6 0.00 dB -7.61 dB 2:49 02-Ice On The Motorway
DR6 0.00 dB -6.55 dB 3:22 03-I Keep It To Myself
DR6 0.00 dB -6.81 dB 3:37 04-Can You Please Crawl Out Your Window
DR7 0.00 dB -8.30 dB 3:07 05-Turned 21
DR7 0.00 dB -8.00 dB 2:58 06-Keep On Loving You
DR6 0.00 dB -6.59 dB 2:26 07-Some Kind Of Hero
DR6 0.00 dB -6.90 dB 3:46 08-Sneaking Suspicion
DR6 0.00 dB -7.04 dB 2:44 09-Keep It Out Of Sight
DR6 0.00 dB -7.20 dB 2:58 10-Everybody's Carrying A Gun
DR6 0.00 dB -7.11 dB 2:51 11-All Through The City
––––––––––––––––––––––––––––––––––––––––

Number of tracks: 11
Official DR value: DR6

Samplerate: 44100 Hz
Channels: 2
Bits per sample: 16
Bitrate: 1001 kbps
Codec: FLAC
================================================================================


Exact Audio Copy V1.1 from 23. June 2015

Отчёт EAC об извлечении, выполненном 23. февраля 2016, 3:09

Wilko Johnson and Roger Daltrey / Going Back Home - (Bonus Disc)

Дисковод: HL-DT-STDVD-RAM GH22NP20 Adapter: 0 ID: 0

Режим чтения : Достоверность
Использование точного потока : Да
Отключение кэша аудио : Да
Использование указателей C2 : Нет

Коррекция смещения при чтении : 102
Способность читать области Lead-in и Lead-out : Нет
Заполнение пропущенных сэмплов тишиной : Да
Удаление блоков с тишиной в начале и конце : Нет
При вычислениях CRC использовались нулевые сэмплы : Да
Интерфейс : Установленный внешний ASPI-интерфейс
Обработка зазоров : Добавлено к предыдущему треку

Выходной формат : Пользовательский кодировщик
Выбранный битрейт : 128 kBit/s
Качество : Высокий
Добавление ID3-тега : Нет
Утилита сжатия : E:\flac-1.3.1-win\win64\flac.exe
Дополнительные параметры : -V -8 -T "Date=%year%" -T "Genre=%genre%" %source%


TOC извлечённого CD

Трек | Старт | Длительность | Начальный сектор | Конечный сектор
––––––––––––––––––––––––––––––––––-
1 | 0:00.00 | 2:51.00 | 0 | 12824
2 | 2:51.00 | 2:26.15 | 12825 | 23789
3 | 5:17.15 | 2:58.21 | 23790 | 37160
4 | 8:15.36 | 3:07.44 | 37161 | 51229
5 | 11:23.05 | 3:17.38 | 51230 | 66042
6 | 14:40.43 | 3:44.00 | 66043 | 82842
7 | 18:24.43 | 4:33.30 | 82843 | 103347
8 | 22:57.73 | 3:37.46 | 103348 | 119668
9 | 26:35.44 | 4:14.69 | 119669 | 138787
10 | 30:50.38 | 8:40.36 | 138788 | 177823
11 | 39:30.74 | 5:54.15 | 177824 | 204388
12 | 45:25.14 | 4:22.15 | 204389 | 224053
13 | 49:47.29 | 3:21.52 | 224054 | 239180
14 | 53:09.06 | 3:26.37 | 239181 | 254667
15 | 56:35.43 | 4:17.05 | 254668 | 273947
16 | 60:52.48 | 2:57.46 | 273948 | 287268
17 | 63:50.19 | 4:31.53 | 287269 | 307646
18 | 68:21.72 | 3:32.36 | 307647 | 323582


Трек 1

Имя файла E:\Wilko Johnson, Roger Daltrey - Going Back Home (2014, Deluxe Edition, Chess, EU, CRCDE2014)\CD2\01 Muskrat.wav

Длина предзазора 0:00:02.00

Пиковый уровень 98.8 %
Скорость извлечения 1.3 X
Качество трека 99.9 %
CRC теста 28A43D50
CRC копии 28A43D50
Копирование… OK

Трек 2

Имя файла E:\Wilko Johnson, Roger Daltrey - Going Back Home (2014, Deluxe Edition, Chess, EU, CRCDE2014)\CD2\02 Some Kind Of Hero - Wilko Version.wav

Пиковый уровень 98.8 %
Скорость извлечения 1.7 X
Качество трека 100.0 %
CRC теста B3326D88
CRC копии B3326D88
Копирование… OK

Трек 3

Имя файла E:\Wilko Johnson, Roger Daltrey - Going Back Home (2014, Deluxe Edition, Chess, EU, CRCDE2014)\CD2\03 Keep On Loving You - Wilko Version.wav

Пиковый уровень 98.8 %
Скорость извлечения 1.6 X
Качество трека 99.9 %
CRC теста BDF9512C
CRC копии BDF9512C
Копирование… OK

Трек 4

Имя файла E:\Wilko Johnson, Roger Daltrey - Going Back Home (2014, Deluxe Edition, Chess, EU, CRCDE2014)\CD2\04 Turned 21 - Wilko Version.wav

Пиковый уровень 98.8 %
Скорость извлечения 1.7 X
Качество трека 99.9 %
CRC теста EB8F35BB
CRC копии EB8F35BB
Копирование… OK

Трек 5

Имя файла E:\Wilko Johnson, Roger Daltrey - Going Back Home (2014, Deluxe Edition, Chess, EU, CRCDE2014)\CD2\05 Going Back Home - Radio Edit.wav

Пиковый уровень 98.8 %
Скорость извлечения 1.8 X
Качество трека 99.9 %
CRC теста B58FFF5B
CRC копии B58FFF5B
Копирование… OK

Трек 6

Имя файла E:\Wilko Johnson, Roger Daltrey - Going Back Home (2014, Deluxe Edition, Chess, EU, CRCDE2014)\CD2\06 All Right - Live At Shepherd's Bush Empire 25,02,14.wav

Длина предзазора 0:00:03.52

Пиковый уровень 98.8 %
Скорость извлечения 2.3 X
Качество трека 100.0 %
CRC теста D9076E41
CRC копии D9076E41
Копирование… OK

Трек 7

Имя файла E:\Wilko Johnson, Roger Daltrey - Going Back Home (2014, Deluxe Edition, Chess, EU, CRCDE2014)\CD2\07 Barbed Wire Blues - Live At Shepherd's Bush Empire 25,02,14.wav

Пиковый уровень 98.8 %
Скорость извлечения 2.5 X
Качество трека 100.0 %
CRC теста B52B70A4
CRC копии B52B70A4
Копирование… OK

Трек 8

Имя файла E:\Wilko Johnson, Roger Daltrey - Going Back Home (2014, Deluxe Edition, Chess, EU, CRCDE2014)\CD2\08 The More I Give - Live At Shepherd's Bush Empire 25,02,14.wav

Пиковый уровень 98.8 %
Скорость извлечения 2.5 X
Качество трека 100.0 %
CRC теста 1F96FBC2
CRC копии 1F96FBC2
Копирование… OK

Трек 9

Имя файла E:\Wilko Johnson, Roger Daltrey - Going Back Home (2014, Deluxe Edition, Chess, EU, CRCDE2014)\CD2\09 Dr. Dupree - Live At Shepherd's Bush Empire 25,02,14.wav

Пиковый уровень 98.8 %
Скорость извлечения 2.6 X
Качество трека 100.0 %
CRC теста 320564E7
CRC копии 320564E7
Копирование… OK

Трек 10

Имя файла E:\Wilko Johnson, Roger Daltrey - Going Back Home (2014, Deluxe Edition, Chess, EU, CRCDE2014)\CD2\10 When Im Gone - Live At Shepherd's Bush Empire 25,02,14.wav

Пиковый уровень 98.8 %
Скорость извлечения 3.0 X
Качество трека 100.0 %
CRC теста 4CDD4E0E
CRC копии 4CDD4E0E
Копирование… OK

Трек 11

Имя файла E:\Wilko Johnson, Roger Daltrey - Going Back Home (2014, Deluxe Edition, Chess, EU, CRCDE2014)\CD2\11 Roxette - Live At Shepherd's Bush Empire 25,02,14.wav

Пиковый уровень 98.8 %
Скорость извлечения 2.8 X
Качество трека 99.9 %
CRC теста 6B2E0153
CRC копии 6B2E0153
Копирование… OK

Трек 12

Имя файла E:\Wilko Johnson, Roger Daltrey - Going Back Home (2014, Deluxe Edition, Chess, EU, CRCDE2014)\CD2\12 Going Back Home - Live At Teenage Cancer Trust.wav

Пиковый уровень 98.8 %
Скорость извлечения 3.1 X
Качество трека 100.0 %
CRC теста 4267884B
CRC копии 4267884B
Копирование… OK

Трек 13

Имя файла E:\Wilko Johnson, Roger Daltrey - Going Back Home (2014, Deluxe Edition, Chess, EU, CRCDE2014)\CD2\13 I Keep It To Myself - Live At Teenage Cancer Trust.wav

Пиковый уровень 98.8 %
Скорость извлечения 3.1 X
Качество трека 100.0 %
CRC теста ECA9F81D
CRC копии ECA9F81D
Копирование… OK

Трек 14

Имя файла E:\Wilko Johnson, Roger Daltrey - Going Back Home (2014, Deluxe Edition, Chess, EU, CRCDE2014)\CD2\14 Keep On Loving You - Live At Teenage Cancer Trust.wav

Пиковый уровень 98.8 %
Скорость извлечения 2.8 X
Качество трека 99.9 %
CRC теста 26D11F56
CRC копии 26D11F56
Копирование… OK

Трек 15

Имя файла E:\Wilko Johnson, Roger Daltrey - Going Back Home (2014, Deluxe Edition, Chess, EU, CRCDE2014)\CD2\15 Sneaking Suspicion - Live At Teenage Cancer Trust.wav

Пиковый уровень 98.8 %
Скорость извлечения 3.4 X
Качество трека 100.0 %
CRC теста CBFC7D33
CRC копии CBFC7D33
Копирование… OK

Трек 16

Имя файла E:\Wilko Johnson, Roger Daltrey - Going Back Home (2014, Deluxe Edition, Chess, EU, CRCDE2014)\CD2\16 All Through The City - Live At Teenage Cancer Trust.wav

Пиковый уровень 98.8 %
Скорость извлечения 2.8 X
Качество трека 99.9 %
CRC теста 94C5B112
CRC копии 94C5B112
Копирование… OK

Трек 17

Имя файла E:\Wilko Johnson, Roger Daltrey - Going Back Home (2014, Deluxe Edition, Chess, EU, CRCDE2014)\CD2\17 Everybody's Carrying A Gun - Live At Shepherd's Bush Empire 25,02,14.wav

Пиковый уровень 98.8 %
Скорость извлечения 3.6 X
Качество трека 100.0 %
CRC теста DED2AAD8
CRC копии DED2AAD8
Копирование… OK

Трек 18

Имя файла E:\Wilko Johnson, Roger Daltrey - Going Back Home (2014, Deluxe Edition, Chess, EU, CRCDE2014)\CD2\18 Some Kind Of Hero - Live At Shepherd's Bush Empire 25,02,14.wav

Пиковый уровень 98.8 %
Скорость извлечения 3.1 X
Качество трека 99.9 %
CRC теста 90AC9801
CRC копии 90AC9801
Копирование… OK

Ошибок не произошло

Конец отчёта

==== Контрольная сумма отчёта 8540160AFEDDBB0BA2C4E356C2DEAFDE8B3CAC22553823B3CA1058D28B2612A3 ====

foobar2000 1.2 / Dynamic Range Meter 1.1.1
log date: 2016-03-04 19:54:48

––––––––––––––––––––––––––––––––––––––––
Analyzed: Wilko Johnson / Roger Daltrey / 2014 - Going Back Home (Disc 02) Bonus Disc
––––––––––––––––––––––––––––––––––––––––

DR Peak RMS Duration Track
––––––––––––––––––––––––––––––––––––––––
DR6 -0.10 dB -6.09 dB 2:51 01-Muskrat
DR6 -0.10 dB -6.81 dB 2:26 02-Some Kind Of Hero (Wilko Version)
DR7 -0.10 dB -8.02 dB 2:58 03-Keep On Loving You (Wilko Version)
DR7 -0.10 dB -8.64 dB 3:08 04-Turned 21 (Wilko Version)
DR5 -0.10 dB -6.59 dB 3:18 05-Going Back Home (Radio Edit)
DR7 -0.10 dB -8.99 dB 3:44 06-Wilko Johnson Band - All Right (Live At The Shepherd's Bush Empire (25/02/2014))
DR7 -0.10 dB -8.66 dB 4:33 07-Wilko Johnson Band - Barbed Wire Blues (Live At The Shepherd's Bush Empire (25/02/2014))
DR8 -0.10 dB -9.16 dB 3:38 08-Wilko Johnson Band - The More I Give (Live At The Shepherd's Bush Empire (25/02/2014))
DR8 -0.10 dB -8.89 dB 4:15 09-Wilko Johnson Band - Dr. Dupree (Live At The Shepherd's Bush Empire (25/02/2014))
DR8 -0.10 dB -9.72 dB 8:40 10-Wilko Johnson Band - When I'm Gone (Live At The Shepherd's Bush Empire (25/02/2014))
DR8 -0.10 dB -9.93 dB 5:54 11-Wilko Johnson Band - Roxette (Live At The Shepherd's Bush Empire (25/02/2014))
DR7 -0.10 dB -8.32 dB 4:22 12-Wilko Johnson / Roger Daltrey - Going Back Home (Live At Royal Albert Hall, Teenage Cancer Trust 2014)
DR7 -0.10 dB -8.12 dB 3:22 13-Wilko Johnson / Roger Daltrey - I Keep It To Myself (Live At Royal Albert Hall, Teenage Cancer Trust 2014)
DR8 -0.10 dB -8.99 dB 3:26 14-Wilko Johnson / Roger Daltrey - Keep On Loving You (Live At Royal Albert Hall, Teenage Cancer Trust 2014)
DR8 -0.10 dB -9.36 dB 4:17 15-Wilko Johnson / Roger Daltrey - Sneaking Suspicion (Live At Royal Albert Hall, Teenage Cancer Trust 2014)
DR7 -0.10 dB -8.40 dB 2:58 16-Wilko Johnson / Roger Daltrey - All Through The City (Live At Royal Albert Hall, Teenage Cancer Trust 2014)
DR7 -0.10 dB -8.00 dB 4:32 17-Wilko Johnson / Roger Daltrey - Everybody's Carrying A Gun (Live At The Shepherd's Bush Empire (25/02/2014))
DR6 -0.10 dB -7.97 dB 3:32 18-Wilko Johnson / Roger Daltrey - Some Kind Of Hero (Live At The Shepherd's Bush Empire (25/02/2014))
––––––––––––––––––––––––––––––––––––––––

Number of tracks: 18
Official DR value: DR7

Samplerate: 44100 Hz
Channels: 2
Bits per sample: 16
Bitrate: 915 kbps
Codec: FLAC
================================================================================

Wilko Johnson & Roger Daltrey - Going Back Home (2014) 2CD Deluxe Edition

Wilko Johnson & Roger Daltrey - Going Back Home (2014) 2CD Deluxe Edition

All thanks to original releaser - Uncle Ernie

More interesting music in My Blog