Tags
Language
Tags

Charles Mingus - Mingus At The Bohemia (1956) [Reissue 1990] (Re-up)

Posted By: gribovar
Charles Mingus - Mingus At The Bohemia (1956) [Reissue 1990] (Re-up)

Charles Mingus - Mingus At The Bohemia (1956) [Reissue 1990]
EAC Rip | FLAC (tracks+.cue+log) - 293 MB | MP3 CBR 320 kbps (LAME 3.93) - 152 MB | Covers - 3 MB
Genre: Jazz, Post-Bop, Hard Bop | RAR 3% Rec. | Label: OJC/Debut Records/Fantasy (00025218604529)

A live performance at the Club Bohemia in New York, this is the first Mingus recording to feature mostly his own compositions. Some are his future standards. Here are his first attempts at future techniques such as combining two songs into one. His bass playing really stands out.
Tracklist:
01. Jump Monk
02. Serenade In Blue
03. Percussion Discussion
04. Work Song
05. Septemberly
06. All The Things You C#
07. Jump Monk (Alternate) (Bonus track)
08. All The Things You C# (Alternate) (Bonus track)

Total time: 01:04:47

Exact Audio Copy V0.99 prebeta 3 from 28. July 2007

EAC extraction logfile from 11. April 2009, 17:15

Charles Mingus / Mingus at the Bohemia

Used drive : TSSTcorpCDDVDW TS-L633L Adapter: 2 ID: 0

Read mode : Secure
Utilize accurate stream : Yes
Defeat audio cache : Yes
Make use of C2 pointers : No

Read offset correction : 6
Overread into Lead-In and Lead-Out : No
Fill up missing offset samples with silence : Yes
Delete leading and trailing silent blocks : No
Null samples used in CRC calculations : Yes
Used interface : Native Win32 interface for Win NT & 2000
Gap handling : Appended to previous track

Used output format : User Defined Encoder
Selected bitrate : 128 kBit/s
Quality : High
Add ID3 tag : No
Command line compressor : C:\Program Files\Exact Audio Copy\Flac\flac.exe
Additional command line options : -V -8 -T "artist=%a" -T "title=%t" -T "album=%g" -T "date=%y" -T "tracknumber=%n" -T "genre=%m" %s


TOC of the extracted CD

Track | Start | Length | Start sector | End sector
––––––––––––––––––––––––––––-
1 | 0:00.00 | 6:53.20 | 0 | 30994
2 | 6:53.20 | 6:05.12 | 30995 | 58381
3 | 12:58.32 | 8:39.00 | 58382 | 97306
4 | 21:37.32 | 6:28.63 | 97307 | 126469
5 | 28:06.20 | 7:06.00 | 126470 | 158419
6 | 35:12.20 | 6:58.05 | 158420 | 189774
7 | 42:10.25 | 11:52.70 | 189775 | 243244
8 | 54:03.20 | 10:44.12 | 243245 | 291556


Track 1

Filename C:\Users\temp\Desktop\FLAC\Charles Mingus - 1955 - Mingus at the Bohemia [FLAC]\01 - Jump Monk.wav

Pre-gap length 0:00:02.00

Peak level 74.3 %
Track quality 100.0 %
Test CRC C9F367C9
Copy CRC C9F367C9
Accurately ripped (confidence 4) [F6335BD5]
Copy OK

Track 2

Filename C:\Users\temp\Desktop\FLAC\Charles Mingus - 1955 - Mingus at the Bohemia [FLAC]\02 - Serenade in Blue.wav

Peak level 55.0 %
Track quality 100.0 %
Test CRC DE8D332D
Copy CRC DE8D332D
Accurately ripped (confidence 3) [CBD3A7C6]
Copy OK

Track 3

Filename C:\Users\temp\Desktop\FLAC\Charles Mingus - 1955 - Mingus at the Bohemia [FLAC]\03 - Percussion Discussion.wav

Pre-gap length 0:00:02.69

Peak level 53.1 %
Track quality 99.9 %
Test CRC BEF974E0
Copy CRC BEF974E0
Accurately ripped (confidence 3) [3697345D]
Copy OK

Track 4

Filename C:\Users\temp\Desktop\FLAC\Charles Mingus - 1955 - Mingus at the Bohemia [FLAC]\04 - Work Song.wav

Pre-gap length 0:00:02.56

Peak level 41.6 %
Track quality 99.9 %
Test CRC 40D4037F
Copy CRC 40D4037F
Accurately ripped (confidence 2) [6981FD11]
Copy OK

Track 5

Filename C:\Users\temp\Desktop\FLAC\Charles Mingus - 1955 - Mingus at the Bohemia [FLAC]\05 - Septemberly.wav

Pre-gap length 0:00:02.53

Peak level 30.8 %
Track quality 99.9 %
Test CRC DF1FF940
Copy CRC DF1FF940
Accurately ripped (confidence 3) [EEB9B42C]
Copy OK

Track 6

Filename C:\Users\temp\Desktop\FLAC\Charles Mingus - 1955 - Mingus at the Bohemia [FLAC]\06 - All the Things You C#.wav

Pre-gap length 0:00:01.73

Peak level 68.0 %
Track quality 99.9 %
Test CRC 457D8931
Copy CRC 457D8931
Accurately ripped (confidence 2) [0C9AA818]
Copy OK

Track 7

Filename C:\Users\temp\Desktop\FLAC\Charles Mingus - 1955 - Mingus at the Bohemia [FLAC]\07 - Jump Monk (previously unissued alternate take).wav

Pre-gap length 0:00:02.73

Peak level 70.1 %
Track quality 99.9 %
Test CRC 681E8642
Copy CRC 681E8642
Accurately ripped (confidence 2) [D57C41DC]
Copy OK

Track 8

Filename C:\Users\temp\Desktop\FLAC\Charles Mingus - 1955 - Mingus at the Bohemia [FLAC]\08 - All The Things You C# (previously unissued alternate take).wav

Peak level 54.3 %
Track quality 100.0 %
Test CRC 3040A32E
Copy CRC 3040A32E
Accurately ripped (confidence 2) [8CB622C6]
Copy OK


All tracks accurately ripped

No errors occurred

End of status report

[CUETools log; Date: 14.05.2022 0:41:31; Version: 2.1.4]
[CTDB TOCID: vxUOFlCHMa4GEUt1HPp3KGbLN4Q-] found.
Track | CTDB Status
1 | (54/61) Accurately ripped
2 | (56/61) Accurately ripped
3 | (55/61) Accurately ripped
4 | (58/61) Accurately ripped
5 | (55/61) Accurately ripped
6 | (56/61) Accurately ripped
7 | (56/61) Accurately ripped
8 | (55/61) Accurately ripped
[AccurateRip ID: 00124077-007bb671-690f2f08] found.
Track [ CRC | V2 ] Status
01 [f6335bd5|4ae75132] (04+14/42) Accurately ripped
02 [cbd3a7c6|e7eb57ec] (04+14/43) Accurately ripped
03 [3697345d|c992adc9] (05+14/44) Accurately ripped
04 [6981fd11|f64779b9] (04+14/43) Accurately ripped
05 [eeb9b42c|7c7ce68a] (04+14/43) Accurately ripped
06 [0c9aa818|4faad857] (04+14/43) Accurately ripped
07 [d57c41dc|7cae4a65] (03+13/41) Accurately ripped
08 [8cb622c6|f066f905] (03+13/41) Accurately ripped
Offsetted by 431:
01 [54776bf9] (06/42) Accurately ripped
02 [9c99935c] (06/43) Accurately ripped
03 [b829e167] (06/44) Accurately ripped
04 [ef483601] (06/43) Accurately ripped
05 [976f18a5] (06/43) Accurately ripped
06 [f263e6ec] (06/43) Accurately ripped
07 [eff8ff9a] (06/41) Accurately ripped
08 [953110a4] (06/41) Accurately ripped
Offsetted by -694:
01 [fd11fb4c] (00/42) No match (V2 was not tested)
02 [bbbf0e66] (00/43) No match (V2 was not tested)
03 [3f00f4e8] (00/44) No match (V2 was not tested)
04 [0d9df2a6] (00/43) No match (V2 was not tested)
05 [47d7b82e] (00/43) No match (V2 was not tested)
06 [3e9c1a91] (00/43) No match (V2 was not tested)
07 [daf0e562] (00/41) No match (V2 was not tested)
08 [f886f4bb] (00/41) No match (V2 was not tested)
Offsetted by -664:
01 [c1bb1a33] (00/42) No match (V2 was not tested)
02 [403f917c] (00/43) No match (V2 was not tested)
03 [f0ccd8b8] (00/44) No match (V2 was not tested)
04 [a645bf2a] (00/43) No match (V2 was not tested)
05 [836bf5c6] (00/43) No match (V2 was not tested)
06 [46b1b758] (00/43) No match (V2 was not tested)
07 [621b2b63] (00/41) No match (V2 was not tested)
08 [23086881] (00/41) No match (V2 was not tested)
Offsetted by 413:
01 [3fad0b49] (00/42) No match (V2 was not tested)
02 [7898067b] (00/43) No match (V2 was not tested)
03 [a0cc7997] (00/44) No match (V2 was not tested)
04 [024f786b] (00/43) No match (V2 was not tested)
05 [9f79685d] (00/43) No match (V2 was not tested)
06 [23667127] (00/43) No match (V2 was not tested)
07 [dd8622b5] (00/41) No match (V2 was not tested)
08 [84e7c22e] (00/41) No match (V2 was not tested)

Track Peak [ CRC32 ] [W/O NULL] [ LOG ]
– 74,3 [AEDAB56B] [8110815A]
01 74,3 [C9F367C9] [E84111D6] CRC32
02 55,0 [DE8D332D] [D99E0D33] CRC32
03 53,1 [BEF974E0] [675033BB] CRC32
04 41,6 [40D4037F] [5C3C5007] CRC32
05 30,8 [DF1FF940] [99DE454E] CRC32
06 68,0 [457D8931] [712719E3] CRC32
07 70,1 [681E8642] [E0ABD74D] CRC32
08 54,3 [3040A32E] [1C84596E] CRC32

Thanks to the original releaser

See also: