Tags
Language
Tags

Amanda Marshall - Amanda Marshall (1995) EU Release 1996

Posted By: Designol
Amanda Marshall - Amanda Marshall (1995) EU Release 1996

Amanda Marshall - Amanda Marshall (1995) EU Release 1996
EAC | FLAC | Tracks (Cue&Log) ~ 358 Mb | Mp3 (CBR320) ~ 145 Mb | Scans included
Adult Alternative Pop/Rock | Label: Epic/Sony | # 483791 2, EPC 483791 2 | 00:49:30

Amanda Marshall is the 1995 debut album by Canadian singer Amanda Marshall. The album peaked at number four on the RPM Albums Chart and has also been certified Diamond by the CRIA with over 1,000,000 copies sold in Canada, making it Marshall's best-selling album of her career. In the United States, the album charted at number 156 on the Billboard 200. Seven songs from the album were released as singles: "Let It Rain", "Birmingham", "Fall from Grace", "Beautiful Goodbye", "Dark Horse", "Sitting on Top of the World", and "Trust Me (This Is Love)". "Birmingham" is Marshall's highest-charting song in Canada, peaking at number three.

This Canadian singer has a pop-rock style reminiscent of Sheryl Crow, with a dash of Melissa Etheridge's growl. Her earlier influences range from folk-popper James Taylor (evident on "Trust Me [This Is Love]") to her countryman Bryan Adams ("Sitting On Top Of The World"). As in Crow's songs, characters from all walks of life populate Marshall's songs, whether it's the Southern homemaker escaping her alcoholic spouse in "Birmingham" or the lost soul looking for salvation in "Last Exit To Eden." Only 10 songs long, AMANDA MARSHALL is a tasty appetizer for what promises to be a delectable body of work.

Allmusic.com

Amanda Marshall - Amanda Marshall (1995) EU Release 1996



Tracklist:

01. Let It Rain (4:33)
02. Birmingham (5:21)
03. Fall from Grace (4:20)
04. Dark Horse (5:38)
05. Beautiful Goodbye (5:17)
06. Sitting on Top of the World (4:20)
07. Last Exit to Eden (5:25)
08. Trust Me (This is Love) (5:00)
09. Let's Get Lost (4:14)
10. Promises (5:22)


Exact Audio Copy V1.1 from 23. June 2015

EAC extraction logfile from 20. June 2017, 15:20

Amanda Marshall / Amanda Marshall (483791 2)

Used drive : HL-DT-STDVDRAM GE20NU11 Adapter: 1 ID: 0

Read mode : Secure
Utilize accurate stream : Yes
Defeat audio cache : Yes
Make use of C2 pointers : No

Read offset correction : 667
Overread into Lead-In and Lead-Out : No
Fill up missing offset samples with silence : Yes
Delete leading and trailing silent blocks : No
Null samples used in CRC calculations : Yes
Used interface : Native Win32 interface for Win NT & 2000
Gap handling : Appended to previous track

Used output format : User Defined Encoder
Selected bitrate : 896 kBit/s
Quality : High
Add ID3 tag : No
Command line compressor : C:\Program Files\EAC 3\Exact Audio Copy\Flac\flac.exe
Additional command line options : -V -8 -T "Genre=%genre%" -T "Artist=%artist%" -T "Title=%title%" -T "Album=%albumtitle%" -T "Date=%year%" -T "Tracknumber=%tracknr%" -T "Comment=%comment%" %source%


TOC of the extracted CD

Track | Start | Length | Start sector | End sector
––––––––––––––––––––––––––––-
1 | 0:00.00 | 4:32.67 | 0 | 20466
2 | 4:32.67 | 5:21.25 | 20467 | 44566
3 | 9:54.17 | 4:20.20 | 44567 | 64086
4 | 14:14.37 | 5:37.63 | 64087 | 89424
5 | 19:52.25 | 5:17.10 | 89425 | 113209
6 | 25:09.35 | 4:20.02 | 113210 | 132711
7 | 29:29.37 | 5:24.65 | 132712 | 157076
8 | 34:54.27 | 4:59.53 | 157077 | 179554
9 | 39:54.05 | 4:14.00 | 179555 | 198604
10 | 44:08.05 | 5:22.20 | 198605 | 222774


Track 1

Filename Z:\OdW\Amanda Marshall - 1996 - Amanda Marshall (483791 2)\01. Amanda Marshall – Let It Rain.wav

Pre-gap length 0:00:02.00

Peak level 94.4 %
Extraction speed 3.7 X
Track quality 99.9 %
Test CRC 01E195EC
Copy CRC 01E195EC
Accurately ripped (confidence 112) [57520DD3] (AR v2)
Copy OK

Track 2

Filename Z:\OdW\Amanda Marshall - 1996 - Amanda Marshall (483791 2)\02. Amanda Marshall – Birmingham.wav

Pre-gap length 0:00:00.45

Peak level 100.0 %
Extraction speed 4.3 X
Track quality 99.9 %
Test CRC F92AF466
Copy CRC F92AF466
Accurately ripped (confidence 114) [1F409BAC] (AR v2)
Copy OK

Track 3

Filename Z:\OdW\Amanda Marshall - 1996 - Amanda Marshall (483791 2)\03. Amanda Marshall – Fall from Grace.wav

Peak level 100.0 %
Extraction speed 4.5 X
Track quality 99.9 %
Test CRC B7FAE82F
Copy CRC B7FAE82F
Accurately ripped (confidence 114) [26C2A117] (AR v2)
Copy OK

Track 4

Filename Z:\OdW\Amanda Marshall - 1996 - Amanda Marshall (483791 2)\04. Amanda Marshall – Dark Horse.wav

Peak level 99.9 %
Extraction speed 5.9 X
Track quality 100.0 %
Test CRC D998ED85
Copy CRC D998ED85
Accurately ripped (confidence 114) [A77AE76A] (AR v2)
Copy OK

Track 5

Filename Z:\OdW\Amanda Marshall - 1996 - Amanda Marshall (483791 2)\05. Amanda Marshall – Beautiful Goodbye.wav

Peak level 100.0 %
Extraction speed 6.4 X
Track quality 100.0 %
Test CRC 8B9787E9
Copy CRC 8B9787E9
Accurately ripped (confidence 115) [BA7AE03E] (AR v2)
Copy OK

Track 6

Filename Z:\OdW\Amanda Marshall - 1996 - Amanda Marshall (483791 2)\06. Amanda Marshall – Sitting on Top of the World.wav

Peak level 100.0 %
Extraction speed 6.5 X
Track quality 100.0 %
Test CRC D72CAC41
Copy CRC D72CAC41
Accurately ripped (confidence 114) [4610B34A] (AR v2)
Copy OK

Track 7

Filename Z:\OdW\Amanda Marshall - 1996 - Amanda Marshall (483791 2)\07. Amanda Marshall – Last Exit to Eden.wav

Pre-gap length 0:00:00.32

Peak level 100.0 %
Extraction speed 7.1 X
Track quality 100.0 %
Test CRC 03DEB899
Copy CRC 03DEB899
Accurately ripped (confidence 115) [C60D31EA] (AR v2)
Copy OK

Track 8

Filename Z:\OdW\Amanda Marshall - 1996 - Amanda Marshall (483791 2)\08. Amanda Marshall – Trust Me (This is Love).wav

Pre-gap length 0:00:01.10

Peak level 91.2 %
Extraction speed 7.1 X
Track quality 100.0 %
Test CRC 59CF1B65
Copy CRC 59CF1B65
Accurately ripped (confidence 115) [F958FD41] (AR v2)
Copy OK

Track 9

Filename Z:\OdW\Amanda Marshall - 1996 - Amanda Marshall (483791 2)\09. Amanda Marshall – Let's Get Lost.wav

Pre-gap length 0:00:01.40

Peak level 100.0 %
Extraction speed 7.3 X
Track quality 100.0 %
Test CRC 3E3EE45A
Copy CRC 3E3EE45A
Accurately ripped (confidence 114) [2B01F209] (AR v2)
Copy OK

Track 10

Filename Z:\OdW\Amanda Marshall - 1996 - Amanda Marshall (483791 2)\10. Amanda Marshall – Promises.wav

Pre-gap length 0:00:00.25

Peak level 100.0 %
Extraction speed 7.9 X
Track quality 100.0 %
Test CRC 1892D9E2
Copy CRC 1892D9E2
Accurately ripped (confidence 114) [02FE13B7] (AR v2)
Copy OK


All tracks accurately ripped

No errors occurred

End of status report

–– CUETools DB Plugin V2.1.6

[CTDB TOCID: h8uNK8DnpqvwUCIJiLKhTpuLhOg-] found
Submit result: h8uNK8DnpqvwUCIJiLKhTpuLhOg- has been confirmed
Track | CTDB Status
1 | (252/552) Accurately ripped, or (279/552) differs in 4537 samples @00:00:25-00:00:33
2 | (541/552) Accurately ripped
3 | (541/552) Accurately ripped
4 | (541/552) Accurately ripped
5 | (540/552) Accurately ripped
6 | (542/552) Accurately ripped
7 | (541/552) Accurately ripped
8 | (541/552) Accurately ripped
9 | (542/552) Accurately ripped
10 | (541/552) Accurately ripped, or (2/552) differs in 2969 samples @05:22:01-05:22:04
If you are sure that your rip contains errors, you can use CUETools to repair it.


==== Log checksum 09CACBB09EE454881675ED581C537D424E7232EAABD5EAE0CB29FD3BFD64FD07 ====

foobar2000 1.2 / Dynamic Range Meter 1.1.1
log date: 2019-02-05 01:55:11

––––––––––––––––––––––––––––––––––––––––
Analyzed: Amanda Marshall / Amanda Marshall (483791 2)
––––––––––––––––––––––––––––––––––––––––

DR Peak RMS Duration Track
––––––––––––––––––––––––––––––––––––––––
DR8 -0.50 dB -10.87 dB 4:33 01-Let It Rain
DR9 0.00 dB -12.22 dB 5:21 02-Birmingham
DR11 0.00 dB -13.17 dB 4:20 03-Fall from Grace
DR10 0.00 dB -11.75 dB 5:38 04-Dark Horse
DR6 0.00 dB -10.90 dB 5:17 05-Beautiful Goodbye
DR10 0.00 dB -11.21 dB 4:20 06-Sitting on Top of the World
DR10 0.00 dB -12.72 dB 5:25 07-Last Exit to Eden
DR10 -0.80 dB -12.03 dB 5:00 08-Trust Me (This is Love)
DR10 0.00 dB -12.39 dB 4:14 09-Let's Get Lost
DR9 0.00 dB -12.13 dB 5:22 10-Promises
––––––––––––––––––––––––––––––––––––––––

Number of tracks: 10
Official DR value: DR9

Samplerate: 44100 Hz
Channels: 2
Bits per sample: 16
Bitrate: 872 kbps
Codec: FLAC
================================================================================

Amanda Marshall - Amanda Marshall (1995) EU Release 1996

Amanda Marshall - Amanda Marshall (1995) EU Release 1996

All thanks to original releaser - Olaf der Weisse

More interesting music in My Blog